Tags
Language
Tags

Brooklyn (2015)

Posted By: JohnSmith
Brooklyn  (2015)

Brooklyn (2015)
BDRip | MKV / AVC@1733 kb/s | 848x464 | 1h 51mn | 1.53 GB
Italian (da iTunes): AC3, 192 kb/s (2 ch) | Subtiltes: Italian (forced, full)
Genre: Drama | Romance

Nei primi anni Cinquanta, la giovane irlandese Ellis Lacey emigra a Brooklyn, dove - a differenza di quanto le accadeva nella sua piccola città natale - ha l'opportunità di trovare un lavoro e l'amore di un italo-americano. Quando una tragedia familiare la riporta in Irlanda, Ellis si ritrova a essere totalmente assorbita dalla sua vecchia comunità e con uno scapolo pronto a corteggiarla. Rinviando ripetutamente il suo rientro in America, si ritroverà a dover scegliere tra due uomini e due Paesi tra loro molto diversi.

IMDB - Nominated for 3 Oscars. Another 30 wins & 138 nominations.



General
Unique ID : 210170891069860596165769611459617340120 (0x9E1D70F6166EF120B15E84C4D583BAD8)
Complete name : C:\Brooklyn.2015.iTA.Bluray.480p.x264-CTRL.mkv
Format : Matroska
Format version : Version 4 / Version 2
File size : 1.53 GiB
Duration : 1h 51mn
Overall bit rate : 1 964 Kbps
Encoded date : UTC 2016-05-03 15:36:40
Writing application : mkvmerge v8.3.0 ('Over the Horizon') 64bit
Writing library : libebml v1.3.1 + libmatroska v1.4.2
DURATION : 01:42:18.597000000
NUMBER_OF_FRAMES : 1271
NUMBER_OF_BYTES : 44503
_STATISTICS_WRITING_APP : mkvmerge v8.3.0 ('Over the Horizon') 64bit
_STATISTICS_WRITING_DATE_UT : 2016-05-03 15:36:40
_STATISTICS_TAGS : BPS DURATION NUMBER_OF_FRAMES NUMBER_OF_BYTES

Video
ID : 1
Format : AVC
Format/Info : Advanced Video Codec
Format profile : High@L4.1
Format settings, CABAC : Yes
Format settings, ReFrames : 5 frames
Codec ID : V_MPEG4/ISO/AVC
Duration : 1h 51mn
Bit rate : 1 733 Kbps
Width : 848 pixels
Height : 464 pixels
Display aspect ratio : 1.85:1
Original display aspect rat : 1.85:1
Frame rate mode : Constant
Frame rate : 23.976 fps
Color space : YUV
Chroma subsampling : 4:2:0
Bit depth : 8 bits
Scan type : Progressive
Bits/(Pixel*Frame) : 0.184
Stream size : 1.35 GiB (88%)
Writing library : x264 core 148 r2665 a01e339
Language : English
Default : Yes
Forced : No
DURATION : 01:51:24.678000000
NUMBER_OF_FRAMES : 160272
NUMBER_OF_BYTES : 1479173483
_STATISTICS_WRITING_APP : mkvmerge v8.3.0 ('Over the Horizon') 64bit
_STATISTICS_WRITING_DATE_UT : 2016-05-03 15:36:40
_STATISTICS_TAGS : BPS DURATION NUMBER_OF_FRAMES NUMBER_OF_BYTES

Audio
ID : 2
Format : AC-3
Format/Info : Audio Coding 3
Mode extension : CM (complete main)
Format settings, Endianness : Big
Codec ID : A_AC3
Duration : 1h 51mn
Bit rate mode : Constant
Bit rate : 192 Kbps
Channel(s) : 2 channels
Channel positions : Front: L R
Sampling rate : 48.0 KHz
Compression mode : Lossy
Stream size : 153 MiB (10%)
Title : iTunes RESYNC
Language : Italian
Default : Yes
Forced : No

Text #1
ID : 3
Format : UTF-8
Codec ID : S_TEXT/UTF8
Codec ID/Info : UTF-8 Plain Text
Title : FORCED
Language : Italian
Default : Yes
Forced : Yes

Text #2
ID : 4
Format : UTF-8
Codec ID : S_TEXT/UTF8
Codec ID/Info : UTF-8 Plain Text
Title : REGOLARI
Language : Italian
Default : No
Forced : No


Screenshots

Brooklyn  (2015)

Brooklyn  (2015)

Brooklyn  (2015)