Tags
Language
Tags

Brooklyn (2015)

Posted By: JohnSmith
Brooklyn  (2015)

Brooklyn (2015)
BDRip MD | AVI / XviD@1377 kb/s | 720x384 | 1h 51mn | 1.18 GB | Italian: MP3, 128 kb/s (2 ch)
Genre: Drama | Romance

Nei primi anni Cinquanta, la giovane irlandese Ellis Lacey emigra a Brooklyn, dove - a differenza di quanto le accadeva nella sua piccola città natale - ha l'opportunità di trovare un lavoro e l'amore di un italo-americano. Quando una tragedia familiare la riporta in Irlanda, Ellis si ritrova a essere totalmente assorbita dalla sua vecchia comunità e con uno scapolo pronto a corteggiarla. Rinviando ripetutamente il suo rientro in America, si ritroverà a dover scegliere tra due uomini e due Paesi tra loro molto diversi.

IMDB - Nominated for 3 Oscars. Another 28 wins & 132 nominations.



General
Complete name : C:\Brooklyn.2015.iTALiAN.MD.BDRip.XviD-RACE.avi
Format : AVI
Format/Info : Audio Video Interleave
File size : 1.18 GiB
Duration : 1h 51mn
Overall bit rate : 1 515 Kbps
Writing library : VirtualDub build 35491/release

Video
ID : 0
Format : MPEG-4 Visual
Format profile : Advanced Simple@L5
Format settings, BVOP : 2
Format settings, QPel : No
Format settings, GMC : No warppoints
Format settings, Matrix : Default (H.263)
Muxing mode : Packed bitstream
Codec ID : XVID
Codec ID/Hint : XviD
Duration : 1h 51mn
Bit rate : 1 377 Kbps
Width : 720 pixels
Height : 384 pixels
Display aspect ratio : 1.85:1
Frame rate : 23.976 fps
Color space : YUV
Chroma subsampling : 4:2:0
Bit depth : 8 bits
Scan type : Progressive
Compression mode : Lossy
Bits/(Pixel*Frame) : 0.208
Stream size : 1.08 GiB (91%)
Writing library : XviD 66

Audio
ID : 1
Format : MPEG Audio
Format version : Version 1
Format profile : Layer 3
Mode : Joint stereo
Mode extension : MS Stereo
Codec ID : 55
Codec ID/Hint : MP3
Duration : 1h 51mn
Bit rate mode : Constant
Bit rate : 128 Kbps
Channel(s) : 2 channels
Sampling rate : 48.0 KHz
Compression mode : Lossy
Stream size : 103 MiB (8%)
Alignment : Split accross interleaves
Interleave, duration : 42 ms (1.00 video frame)
Interleave, preload duratio : 500 ms
Writing library : LAME3.99r
Encoding settings : -m j -V 4 -q 3 -lowpass 17 -b 128


Screenshots

Brooklyn  (2015)

Brooklyn  (2015)

Brooklyn  (2015)