Brother Bear (2003)

Posted By: vivid23
Brother Bear (2003)

Brother Bear (2003)
Bluray-rip 720p | 1280x544 | MKV/x264 @ 2941 Kbps | 85mn | Audio: English DTS 1510 kbps, 6 channels | Subs: English | 2.65 GB
Genre: Animation | Adventure | Family

Kenai, a man who resents bears after a fight with one kills his older brother, is turned into a bear so he can see life from a different perspective. He is visited by the spirit of his older brother, and is told that, if he wishes to be changed back into a human, he must travel to the place where the lights touch the Earth, in other words, the Northern Lights. Fueled by hope, Kenai sets off on his long journey, and, along the way, encounters a younger bear, Koda, who is a chatterbox and a fun-loving spirit; Koda is trying to find his way back to his home, the Salmon Run, which, coincidentally, is right next to where the lights touch the Earth. Koda and Kenai team up, but are hunted by Kenai's other brother, Denahi, who fears that the bear has killed Kenai as well. Along the way, the two bears meet other friends, including two moose, some rams, and some mammoths, with whom they hitch a ride. However, Kenai discovers that he likes being a bear, and realizes that humans aren't only afraid of bears; through Koda's eyes, the humans are the monsters, with their long spears. With a whole new view on life, Kenai makes a decision that will change his world forever.

More info

Video
ID : 1
Format : AVC
Format/Info : Advanced Video Codec
Format profile : High@L4.1
Format settings, CABAC : Yes
Format settings, ReFrames : 5 frames
Codec ID : V_MPEG4/ISO/AVC
Duration : 1h 25mn
Bit rate : 2 941 Kbps
Width : 1 280 pixels
Height : 544 pixels
Display aspect ratio : 2.35:1
Frame rate : 23.976 fps
Color space : YUV
Chroma subsampling : 4:2:0
Bit depth : 8 bits
Scan type : Progressive
Bits/(Pixel*Frame) : 0.176
Stream size : 1.70 GiB (64%)
Writing library : x264 core 129 r2245 bc13772
Encoding settings : cabac=1 / ref=5 / deblock=1:0:0 / analyse=0x3:0x113 / me=umh / subme=8 / psy=1 / psy_rd=1.00:0.00 / mixed_ref=1 / me_range=16 / chroma_me=1 / trellis=1 / 8x8dct=1 / cqm=0 / deadzone=21,11 / fast_pskip=1 / chroma_qp_offset=-2 / threads=12 / lookahead_threads=2 / sliced_threads=0 / nr=0 / decimate=1 / interlaced=0 / bluray_compat=0 / constrained_intra=0 / bframes=3 / b_pyramid=2 / b_adapt=2 / b_bias=0 / direct=3 / weightb=1 / open_gop=0 / weightp=2 / keyint=240 / keyint_min=24 / scenecut=40 / intra_refresh=0 / rc_lookahead=50 / rc=2pass / mbtree=1 / bitrate=2941 / ratetol=1.0 / qcomp=0.60 / qpmin=0 / qpmax=69 / qpstep=4 / cplxblur=20.0 / qblur=0.5 / ip_ratio=1.40 / aq=1:1.00
Language : English

Audio
ID : 2
Format : DTS
Format/Info : Digital Theater Systems
Codec ID : A_DTS
Duration : 1h 25mn
Bit rate mode : Constant
Bit rate : 1 510 Kbps
Channel(s) : 6 channels
Channel positions : Front: L C R, Side: L R, LFE
Sampling rate : 48.0 KHz
Bit depth : 24 bits
Compression mode : Lossy
Stream size : 919 MiB (34%)
Language : English

Text
ID : 3
Format : UTF-8
Codec ID : S_TEXT/UTF8
Codec ID/Info : UTF-8 Plain Text
Language : English

Menu
00:00:00.000 : en:00:00:00.000
00:02:01.288 : en:00:02:01.288
00:07:03.465 : en:00:07:03.465
00:11:24.100 : en:00:11:24.100
00:14:33.206 : en:00:14:33.206
00:15:21.254 : en:00:15:21.254
00:20:10.084 : en:00:20:10.084
00:24:34.473 : en:00:24:34.473
00:27:06.708 : en:00:27:06.708
00:29:45.617 : en:00:29:45.617
00:33:01.188 : en:00:33:01.188
00:36:18.927 : en:00:36:18.927
00:38:26.054 : en:00:38:26.054
00:42:22.582 : en:00:42:22.582
00:44:18.030 : en:00:44:18.030
00:47:10.369 : en:00:47:10.369
00:48:59.520 : en:00:48:59.520
00:50:16.055 : en:00:50:16.055
00:54:21.133 : en:00:54:21.133
00:56:46.778 : en:00:56:46.778
01:00:11.316 : en:01:00:11.316
01:04:58.895 : en:01:04:58.895
01:08:28.855 : en:01:08:28.855
01:09:14.817 : en:01:09:14.817
01:11:20.109 : en:01:11:20.109
01:16:55.986 : en:01:16:55.986
01:18:01.468 : en:01:18:01.468
01:19:29.139 : en:01:19:29.139


Brother Bear (2003)

Brother Bear (2003)


Feel free to contact me when links are dead