Tags
Language
Tags

Brothers by Blood (2020)

Posted By: Tavaz
1080p (FullHD) / BDRip IMDb
Brothers by Blood (2020)

Brothers by Blood (2020)
BDRip | MKV | 1920x800 | English | H264 @ 11467 kbps | DTS | 1 h 30 min | 9.40 GiB
Subtitles: Français
Genre: Crime, Action, Drama

Peter and Michael, raised on the streets of Philadelphia, are the children of Irish mob members, forever linked by the crimes of their fathers. 30 years later, Michael now runs the criminal organization and lusts for more power, his dangerous antics frequently held in check by his cautious cousin Peter. Haunted by the death of his sister, whose passing destroyed both his parents, Peter is caught between the dreams of childhood and the realities of his life as an enforcer. His only reprieve is a local boxing gym, a sanctuary that is quickly threatened as Michael’s desire for control escalates.

Brothers.by.Blood.2020.1080p.BluRay.x264-JustWatch.part1.rar (4.9 GB)
Brothers.by.Blood.2020.1080p.BluRay.x264-JustWatch.part2.rar (4.6 GB)



General
Unique ID : 3542866934771314049173428221471598789 (0x2AA54D379D200CB111FBDCD5C3BA8C5)
Complete name : ./Brothers.by.Blood.2020.1080p.BluRay.x264-JustWatch.mkv
Format : Matroska
Format version : Version 4 / Version 2
File size : 9.40 GiB
Duration : 1 h 30 min
Overall bit rate : 14.9 Mb/s
Encoded date : UTC 2021-08-26 19:53:23
Writing application : mkvmerge v31.0.0 ('Dolores In A Shoestand') 64-bit
Writing library : libebml v1.3.6 + libmatroska v1.4.9

Video
ID : 1
Format : AVC
Format/Info : Advanced Video Codec
Format profile : High@L4.1
Format settings : CABAC / 5 Ref Frames
Format settings, CABAC : Yes
Format settings, RefFrames : 5 frames
Codec ID : V_MPEG4/ISO/AVC
Duration : 1 h 30 min
Bit rate : 11.5 Mb/s
Width : 1 920 pixels
Height : 800 pixels
Display aspect ratio : 2.40:1
Frame rate mode : Constant
Frame rate : 23.976 (24000/1001) FPS
Color space : YUV
Chroma subsampling : 4:2:0
Bit depth : 8 bits
Scan type : Progressive
Bits/(Pixel*Frame) : 0.311
Stream size : 7.21 GiB (77%)
Writing library : x264 core 164 r3065 ae03d92
Encoding settings : cabac=1 / ref=5 / deblock=1:-3:-3 / analyse=0x3:0x133 / me=umh / subme=9 / psy=1 / psy_rd=1.00:0.00 / mixed_ref=1 / me_range=16 / chroma_me=1 / trellis=2 / 8x8dct=1 / cqm=0 / deadzone=21,11 / fast_pskip=0 / chroma_qp_offset=-2 / threads=25 / lookahead_threads=2 / sliced_threads=0 / nr=0 / decimate=1 / interlaced=0 / bluray_compat=0 / constrained_intra=0 / bframes=3 / b_pyramid=2 / b_adapt=2 / b_bias=0 / direct=3 / weightb=1 / open_gop=0 / weightp=2 / keyint=250 / keyint_min=23 / scenecut=40 / intra_refresh=0 / rc_lookahead=60 / rc=crf / mbtree=1 / crf=17.0 / qcomp=0.60 / qpmin=0 / qpmax=69 / qpstep=4 / ip_ratio=1.40 / aq=1:1.00
Language : English
Default : Yes
Forced : No

Audio
ID : 2
Format : DTS
Format/Info : Digital Theater Systems
Format profile : MA / Core
Mode : 16
Format settings, Endianness : Big
Codec ID : A_DTS
Duration : 1 h 30 min
Bit rate mode : Variable / Constant
Bit rate : 3 458 kb/s / 1 509 kb/s
Channel(s) : 6 channels
Channel positions : Front: L C R, Side: L R, LFE
Sampling rate : 48.0 kHz
Frame rate : 93.750 FPS (512 SPF)
Bit depth : 24 bits
Compression mode : Lossless / Lossy
Stream size : 2.17 GiB (23%)
Language : English
Default : Yes
Forced : No

Text #1
ID : 3
Format : PGS
Muxing mode : zlib
Codec ID : S_HDMV/PGS
Codec ID/Info : Picture based subtitle format used on BDs/HD-DVDs
Duration : 1 h 29 min
Bit rate : 18.3 kb/s
Count of elements : 1692
Stream size : 11.7 MiB (0%)
Language : French
Default : No
Forced : No

Text #2
ID : 4
Format : PGS
Muxing mode : zlib
Codec ID : S_HDMV/PGS
Codec ID/Info : Picture based subtitle format used on BDs/HD-DVDs
Duration : 1 h 29 min
Bit rate : 26.2 kb/s
Count of elements : 2539
Stream size : 16.8 MiB (0%)
Language : French
Default : No
Forced : No

Menu
00:00:00.000 : en:Chapter 01
00:08:12.617 : en:Chapter 02
00:15:21.212 : en:Chapter 03
00:22:12.957 : en:Chapter 04
00:29:40.070 : en:Chapter 05
00:39:25.738 : en:Chapter 06
00:49:57.286 : en:Chapter 07
00:56:11.660 : en:Chapter 08
01:03:42.652 : en:Chapter 09
01:09:24.535 : en:Chapter 10
01:15:39.827 : en:Chapter 11
01:23:44.228 : en:Chapter 12





Brothers by Blood (2020)


Brothers by Blood (2020)


Brothers by Blood (2020)


Brothers by Blood (2020)


Brothers by Blood (2020)