Tags
Language
Tags

BBC - Buddy Holly: Rave On (2017)

Posted By: Tutorial
720p (HD) / HDTV
BBC - Buddy Holly: Rave On (2017)

BBC - Buddy Holly: Rave On (2017)
HDTV | 1280 x 720 | .MKV/AVC @ 1659 Kbps | 59 min 4 s | 755 MB
Audio: English AAC 125 Kbps, 2 channels | Subs: English
Genre: Documentary

He was lanky, he wore glasses and he sang as if permanently battling hiccups. Aesthetically, Buddy Holly might have been the most unlikely looking rock 'n' roll star of the 50s. But he was, after Elvis Presley, unquestionably the most influential.

It was an all-too-brief career that lasted barely 18 months from That'll Be The Day topping the Billboard charts to the plane crash in February 1959 in Iowa that took Holly's life. That day was immortalised in Don McLean's 1971 song American Pie, and has become known as 'the day the music died'.

This film tells the story of Buddy Holly's tragically short life and career through interviews with those who knew him and worked with him. This combined with contributions from music fans paints a picture of an artist who changed music. Rock 'n' roll started with Elvis, but pop music started with Buddy Holly and The Crickets.

In an age of solo stars, Holly also led the first recognisable 'pop' group, The Crickets, who in name alone inspired The Beatles. As a songwriter, he revolutionised rock 'n' roll by introducing dynamic new rhythms and unpredictable melodies beyond its traditional blues roots. In his songs, written and recorded in the late 50s, we can already hear the beat group sound of the 60s and beyond.

Buddy Holly's story remains one of the most dramatic tales in rock 'n' roll, one which nearly 60 years after his breakthrough hit That'll Be The Day, deserves to be told again for a new generation. His life was tragically short. His legacy is triumphantly infinite.

General
Unique ID : 14634848943582613645384280310161449399 (0xB0291C2F76DB24171EF3089676DA1B7)
Complete name : BBC.Buddy.Holly.Rave.On.mkv
Format : Matroska
Format version : Version 4 / Version 2
File size : 755 MiB
Duration : 59 min 4 s
Overall bit rate : 1 787 kb/s
Movie name : Buddy Holly: Rave On [MVGroup]
Encoded date : UTC 2020-02-01 15:19:05
Writing application : mkvmerge v43.0.0 ('The Quartermaster') 64-bit
Writing library : libebml v1.3.10 + libmatroska v1.5.2

Video
ID : 1
Format : HEVC
Format/Info : High Efficiency Video Coding
Format profile : Main@L4@Main
Codec ID : V_MPEGH/ISO/HEVC
Duration : 59 min 4 s
Bit rate : 1 659 kb/s
Width : 1 280 pixels
Height : 720 pixels
Display aspect ratio : 16:9
Frame rate mode : Constant
Frame rate : 50.000 FPS
Color space : YUV
Chroma subsampling : 4:2:0
Bit depth : 8 bits
Bits/(Pixel*Frame) : 0.036
Stream size : 701 MiB (93%)
Writing library : x265 3.2+38-fdbd4e4a2aff:[Windows][MSVC 1924][64 bit] 8bit
Encoding settings : cpuid=1111039 / frame-threads=3 / numa-pools=12 / wpp / no-pmode / no-pme / no-psnr / no-ssim / log-level=2 / input-csp=1 / input-res=1280x720 / interlace=0 / total-frames=177200 / level-idc=0 / high-tier=1 / uhd-bd=0 / ref=3 / no-allow-non-conformance / no-repeat-headers / annexb / no-aud / no-hrd / info / hash=0 / no-temporal-layers / no-open-gop / min-keyint=50 / keyint=500 / gop-lookahead=11 / bframes=7 / b-adapt=2 / b-pyramid / bframe-bias=0 / rc-lookahead=20 / lookahead-slices=4 / scenecut=40 / hist-scenecut=0 / radl=0 / no-splice / no-intra-refresh / ctu=64 / min-cu-size=8 / no-rect / no-amp / max-tu-size=32 / tu-inter-depth=1 / tu-intra-depth=1 / limit-tu=0 / rdoq-level=0 / dynamic-rd=0.00 / no-ssim-rd / signhide / no-tskip / nr-intra=0 / nr-inter=0 / no-constrained-intra / strong-intra-smoothing / max-merge=3 / limit-refs=1 / no-limit-modes / me=2 / subme=2 / merange=48 / temporal-mvp / no-frame-dup / hme / Level / merange / L0,L1,L2=16,32,48 / weightp / weightb / no-analyze-src-pics / deblock=0:0 / no-sao / no-sao-non-deblock / rd=3 / selective-sao=0 / early-skip / no-rskip / no-fast-intra / no-tskip-fast / no-cu-lossless / b-intra / no-splitrd-skip / rdpenalty=0 / psy-rd=4.00 / psy-rdoq=0.00 / no-rd-refine / no-lossless / cbqpoffs=0 / crqpoffs=0 / rc=crf / crf=21.0 / qcomp=0.60 / qpstep=1 / stats-write=0 / stats-read=0 / ipratio=1.10 / pbratio=1.00 / aq-mode=0 / aq-strength=0.00 / no-cutree / zone-count=0 / no-strict-cbr / qg-size=64 / rc-grain / qpmax=69 / qpmin=0 / const-vbv / sar=0 / overscan=0 / videoformat=5 / range=0 / colorprim=1 / transfer=1 / colormatrix=1 / chromaloc=0 / display-window=0 / cll=0,0 / min-luma=0 / max-luma=255 / log2-max-poc-lsb=8 / vui-timing-info / vui-hrd-info / slices=1 / no-opt-qp-pps / no-opt-ref-list-length-pps / no-multi-pass-opt-rps / scenecut-bias=0.05 / hist-threshold=0.01 / no-opt-cu-delta-qp / no-aq-motion / no-hdr10 / no-hdr10-opt / no-dhdr10-opt / no-idr-recovery-sei / analysis-reuse-level=0 / analysis-save-reuse-level=0 / analysis-load-reuse-level=0 / scale-factor=0 / refine-intra=0 / refine-inter=0 / refine-mv=1 / refine-ctu-distortion=0 / no-limit-sao / ctu-info=0 / no-lowpass-dct / refine-analysis-type=0 / copy-pic=1 / max-ausize-factor=1.0 / no-dynamic-refine / no-single-sei / no-hevc-aq / no-svt / no-field / qp-adaptation-range=1.00 / no-scenecut-aware-qpconformance-window-offsets / right=0 / bottom=0
Language : English
Default : Yes
Forced : No
Color range : Limited
Color primaries : BT.709
Transfer characteristics : BT.709
Matrix coefficients : BT.709

Audio
ID : 2
Format : AAC
Format/Info : Advanced Audio Codec
Format profile : LC
Codec ID : A_AAC
Duration : 59 min 3 s
Bit rate : 125 kb/s
Channel(s) : 2 channels
Channel positions : Front: L R
Sampling rate : 48.0 kHz
Frame rate : 46.875 FPS (1024 spf)
Compression mode : Lossy
Delay relative to video : 9 ms
Stream size : 52.8 MiB (7%)
Language : English
Default : Yes
Forced : No

Text
ID : 3
Format : UTF-8
Codec ID : S_TEXT/UTF8
Codec ID/Info : UTF-8 Plain Text
Duration : 59 min 1 s
Bit rate : 94 b/s
Count of elements : 996
Stream size : 41.0 KiB (0%)
Language : English
Default : No
Forced : No
Screenshots

BBC - Buddy Holly: Rave On (2017)

BBC - Buddy Holly: Rave On (2017)

Welcome to my blog - daily update!

BBC - Buddy Holly: Rave On (2017)