Tags
Language
Tags

BBC - Building Britains Biggest Nuclear Power Station: Series 1 (2021)

Posted By: Tutorial
1080p (FullHD) / HDTV
BBC - Building Britains Biggest Nuclear Power Station: Series 1 (2021)

BBC - Building Britains Biggest Nuclear Power Station: Series 1 (2021)
HDTV | 1920 x 1080 | .MP4/AVC @ 4495 Kbps | 2x~58mn | 3.83 GB
Audio: English AAC 161 Kbps, 2 channels | Subs: English
Genre: Documentary

Documentary series going behind the scenes to capture the action at the construction site of Hinkley Point C, Britain’s controversial new nuclear power station. With unique behind-the-scenes access, this series follows the construction workers at Hinkley Point C, Britain’s biggest and newest nuclear power station, which is being built in a remote corner of the Somerset countryside.

Part 1:
With a price tag of over ?22 billion and covering an area the size of 250 football pitches, this extraordinary construction site is one of the largest in Europe and the UK’s first new nuclear power station for a generation.


Part 2:
The project sees its biggest lift to date using the world’s largest land-based crane. Meanwhile, we learn about the extensive flood defence system, and specialists work to uncover unexploded bombs.

General
Complete name : Building.Britains.Biggest.Nuclear.Power.Station.Series1.Part.1.mp4
Format : MPEG-4
Format profile : Base Media
Codec ID : isom (isom)
File size : 1.92 GiB
Duration : 58 min 58 s
Overall bit rate mode : Variable
Overall bit rate : 4 660 kb/s
Encoded date : UTC 2021-06-10 09:57:57
Tagged date : UTC 2021-06-10 09:57:57

Video
ID : 1
Format : AVC
Format/Info : Advanced Video Codec
Format profile : High@L4.1
Format settings : CABAC / 4 Ref Frames
Format settings, CABAC : Yes
Format settings, RefFrames : 4 frames
Codec ID : avc1
Codec ID/Info : Advanced Video Coding
Duration : 58 min 58 s
Bit rate : 4 495 kb/s
Maximum bit rate : 10.3 Mb/s
Width : 1 920 pixels
Height : 1 080 pixels
Display aspect ratio : 16:9
Frame rate mode : Constant
Frame rate : 25.000 FPS
Standard : Component
Color space : YUV
Chroma subsampling : 4:2:0
Bit depth : 8 bits
Scan type : Progressive
Bits/(Pixel*Frame) : 0.087
Stream size : 1.85 GiB (96%)
Title : Building.Britains.Biggest.Nuclear.Power.Station.Series1.Part.1.1080p.HDTV.x264.AAC..org.mp4
Tagged date : UTC 2021-06-10 09:59:25
Color range : Limited

Audio
ID : 2
Format : AAC
Format/Info : Advanced Audio Codec
Format profile : LC
Codec ID : mp4a-40-2
Duration : 58 min 58 s
Bit rate mode : Variable
Bit rate : 161 kb/s
Maximum bit rate : 170 kb/s
Channel(s) : 2 channels
Channel positions : Front: L R
Sampling rate : 48.0 kHz
Frame rate : 46.875 FPS (1024 SPF)
Compression mode : Lossy
Stream size : 67.8 MiB (3%)
Title : Building.Britains.Biggest.Nuclear.Power.Station.Series1.Part.1.1080p.HDTV.x264.AAC..org.mp4
Language : English
Encoded date : UTC 2021-06-10 09:58:37
Tagged date : UTC 2021-06-10 09:59:25

Text
ID : 3
Format : Timed Text
Codec ID : tx3g
Duration : 58 min 29 s
Bit rate mode : Variable
Bit rate : 211 b/s
Stream size : 90.3 KiB (0%)
Title : Building.Britains.Biggest.Nuclear.Power.Station.Series1.Part.1.1080p.HDTV.x264.AAC..org.srt
Forced : No
Encoded date : UTC 2021-06-10 09:59:25
Tagged date : UTC 2021-06-10 09:59:25
Screenshots

BBC - Building Britains Biggest Nuclear Power Station: Series 1 (2021)

BBC - Building Britains Biggest Nuclear Power Station: Series 1 (2021)

BBC - Building Britains Biggest Nuclear Power Station: Series 1 (2021)

Welcome to my blog - daily update!

BBC - Building Britains Biggest Nuclear Power Station: Series 1 (2021)