Tags
Language
Tags

Sci Ch. - Building Giants Series 4: Part 7 Monster Roller Coaster (2020)

Posted By: notbanned
1080p (FullHD) / HDTV
Sci Ch. - Building Giants Series 4: Part 7 Monster Roller Coaster (2020)

Sci Ch. - Building Giants Series 4: Part 7 Monster Roller Coaster (2020)
HDTV | 1280x720 | .MP4/AVC @ 4549 Kbps | 42 min 5 s | 1.39 GiB
Audio: English AAC 160 kbps, 2 channels | Subs: English
Genre: Documentary

Expert engineering and cutting-edge technology come together to build one of the world's wildest roller coasters, and special behind-the-scenes access reveals how new innovations make this high-speed thrill ride possible.

General
Complete name : Building.Giants.Series.4.Part.7.Monster.Roller.Coaster.1080p.mp4
Format : MPEG-4
Format profile : Base Media
Codec ID : isom (isom)
File size : 1.39 GiB
Duration : 42 min 5 s
Overall bit rate mode : Variable
Overall bit rate : 4 712 kb/s

Video
ID : 1
Format : AVC
Format/Info : Advanced Video Codec
Format profile : High@L4.1
Format settings, CABAC : No
Format settings, ReFrames : 2 frames
Format settings, GOP : M=1, N=12
Codec ID : avc1
Codec ID/Info : Advanced Video Coding
Duration : 42 min 4 s
Bit rate : 4 549 kb/s
Maximum bit rate : 27.6 Mb/s
Width : 1 920 pixels
Height : 1 080 pixels
Display aspect ratio : 16:9
Frame rate mode : Constant
Frame rate : 23.976 (24000/1001) FPS
Color space : YUV
Chroma subsampling : 4:2:0
Bit depth : 8 bits
Scan type : Progressive
Bits/(Pixel*Frame) : 0.092
Stream size : 1.34 GiB (97%)
Language : English
Encoded date : UTC 2020-06-25 09:24:11
Tagged date : UTC 2020-06-25 11:47:51

Audio
ID : 2
Format : AAC
Format/Info : Advanced Audio Codec
Format profile : LC
Codec ID : 40
Duration : 42 min 5 s
Bit rate mode : Variable
Bit rate : 160 kb/s
Maximum bit rate : 242 kb/s
Channel(s) : 2 channels
Channel positions : Front: L R
Sampling rate : 48.0 kHz
Frame rate : 46.875 FPS (1024 spf)
Compression mode : Lossy
Stream size : 48.2 MiB (3%)
Language : English
Encoded date : UTC 2020-06-25 11:47:31
Tagged date : UTC 2020-06-25 11:47:51

Text
ID : 3
Format : Timed Text
Codec ID : tx3g
Duration : 42 min 0 s
Bit rate mode : Variable
Bit rate : 107 b/s
Stream size : 33.0 KiB (0%)
Forced : No
Encoded date : UTC 2020-06-25 11:47:51
Tagged date : UTC 2020-06-25 11:47:51


Screenshots:

Sci Ch. - Building Giants Series 4: Part 7 Monster Roller Coaster (2020)

Sci Ch. - Building Giants Series 4: Part 7 Monster Roller Coaster (2020)

Sci Ch. - Building Giants Series 4: Part 7 Monster Roller Coaster (2020)

Sci Ch. - Building Giants Series 4: Part 7 Monster Roller Coaster (2020)