Tags
Language
Tags

Building Jerusalem (2015)

Posted By: notbanned
Building Jerusalem (2015)

Building Jerusalem (2015)
WEB-DL | 960x718 | .MKV/AVC @ 4035 Kbps | 1h 29min | 2.78 GiB
Audio: English AC3 384 kbps, 6 channels | Subs: None
Genre: Documentary | Sport

ENGLAND v AUSTRALIA, World Cup Final, 2003. With two minutes of extra time left to win, Jonny Wilkinson goes for his trademark drop goal. This time, he's shooting for a place in sporting history.
More info


General
Unique ID : 210228502105962390865721483564649945528 (0x9E28896797D37064B4B6114828E219B8)
Complete name : Building.Jerusalem.720p.mkv
Format : Matroska
Format version : Version 4 / Version 2
File size : 2.78 GiB
Duration : 1 h 29 min
Overall bit rate : 4 421 kb/s

Video
ID : 1
Format : AVC
Format/Info : Advanced Video Codec
Format profile : Main@L3.1
Format settings, CABAC : No
Format settings, ReFrames : 2 frames
Codec ID : V_MPEG4/ISO/AVC
Duration : 1 h 29 min
Bit rate : 4 035 kb/s
Width : 960 pixels
Height : 718 pixels
Display aspect ratio : 16:9
Frame rate mode : Constant
Frame rate : 25.000 FPS
Color space : YUV
Chroma subsampling : 4:2:0
Bit depth : 8 bits
Scan type : Progressive
Bits/(Pixel*Frame) : 0.234
Stream size : 2.54 GiB (91%)
Language : English
Default : Yes
Forced : No
Color range : Limited
Color primaries : BT.709
Transfer characteristics : BT.709
Matrix coefficients : BT.709

Audio
ID : 2
Format : AC-3
Format/Info : Audio Coding 3
Format settings, Endianness : Big
Codec ID : A_AC3
Duration : 1 h 29 min
Bit rate mode : Constant
Bit rate : 384 kb/s
Channel(s) : 6 channels
Channel positions : Front: L C R, Side: L R, LFE
Sampling rate : 48.0 kHz
Frame rate : 31.250 FPS (1536 spf)
Bit depth : 16 bits
Compression mode : Lossy
Stream size : 247 MiB (9%)
Language : English
Service kind : Complete Main
Default : Yes
Forced : No


Screenshots:

Building Jerusalem (2015)

Building Jerusalem (2015)

Building Jerusalem (2015)

Building Jerusalem (2015)