Rockhound - Building the Sun: The 250 Million Degree Problem (2017)

Posted By: Tutorial
Rockhound - Building the Sun: The 250 Million Degree Problem (2017)

Rockhound - Building the Sun: The 250 Million Degree Problem (2017)
HDTV | 1920 x 1080 | .MP4/AVC @ 7927 Kbps | 11 min 18 s | 644 MB
Audio: English AAC 157 Kbps, 2 channels | Subs: English
Genre: Documentary, Science

Scientists investigate the way the Sun builds its power – through fusion – hoping to find a way to use fusion as a less dangerous and less radioactive waste-producing path to energy than fission. But there are some major difficulties along the way…
Related Documentaries:
TVF - Solar Superstorms (2016)
Fight for Space (2016)
The Mars Underground (2007)
Human Universe (2014)
BBC - The Story of Science (2010)
BBC - The Big Think: Should We Go to Mars (2017)
Through the Wormhole: Season 01-06 (2010-2015)
BBC The Sky at Night - 60th Anniversary Special (2017)
BBC - The Big Think: Should We Go to Mars (2017)
The Wonder of It All (2007)
ABC - Life of a Universe (2017)
Mars: Quest for Life (2008)
The Dark Side of the Sun (2017)
PBS American Experience - Space Men (2016)
BBC - Destination Titan (2011)
BBC - Wonders of the Universe (2011)
BBC - Wonders of the Solar System (2010)
Discovery Channel - Sci Fi Science (2009)

General
Complete name : Building.The.Sun.The.250.Million.Degree.Problem.mp4
Format : MPEG-4
Format profile : Base Media
Codec ID : isom (isom)
File size : 644 MiB
Duration : 11 min 18 s
Overall bit rate mode : Variable
Overall bit rate : 7 968 kb/s
Encoded date : UTC 2017-11-03 19:45:50
Tagged date : UTC 2017-11-03 19:45:50
Writing application : My MP4Box GUI 0.6.0.6

Video
ID : 1
Format : AVC
Format/Info : Advanced Video Codec
Format profile : High@L4.1
Format settings, CABAC : Yes
Format settings, ReFrames : 4 frames
Codec ID : avc1
Codec ID/Info : Advanced Video Coding
Duration : 11 min 18 s
Bit rate : 7 927 kb/s
Maximum bit rate : 23.7 Mb/s
Width : 1 920 pixels
Height : 1 080 pixels
Display aspect ratio : 16:9
Frame rate mode : Constant
Frame rate : 29.970 (30000/1001) FPS
Color space : YUV
Chroma subsampling : 4:2:0
Bit depth : 8 bits
Scan type : Progressive
Bits/(Pixel*Frame) : 0.128
Stream size : 631 MiB (98%)
Title : Building.The.Sun.The.250.Million.Degree.Problem.1080p.HDTV.x264.AAC
Writing library : x264 core 130 r2273 b3065e6
Encoding settings : cabac=1 / ref=1 / deblock=1:0:0 / analyse=0x3:0x3 / me=dia / subme=1 / psy=1 / psy_rd=1.00:0.00 / mixed_ref=0 / me_range=16 / chroma_me=1 / trellis=0 / 8x8dct=1 / cqm=0 / deadzone=21,11 / fast_pskip=1 / chroma_qp_offset=0 / threads=6 / lookahead_threads=1 / sliced_threads=0 / nr=0 / decimate=1 / interlaced=0 / bluray_compat=0 / constrained_intra=0 / bframes=3 / b_pyramid=2 / b_adapt=1 / b_bias=0 / direct=1 / weightb=1 / open_gop=0 / weightp=1 / keyint=300 / keyint_min=30 / scenecut=40 / intra_refresh=0 / rc_lookahead=0 / rc=abr / mbtree=0 / bitrate=7927 / ratetol=1.0 / qcomp=0.60 / qpmin=0 / qpmax=69 / qpstep=4 / vbv_maxrate=62500 / vbv_bufsize=78125 / nal_hrd=none / ip_ratio=1.40 / pb_ratio=1.30 / aq=1:1.00
Encoded date : UTC 2017-11-03 19:22:38
Tagged date : UTC 2017-11-03 19:45:58
Color range : Limited
Color primaries : BT.709
Transfer characteristics : BT.709
Matrix coefficients : BT.709

Audio
ID : 2
Format : AAC
Format/Info : Advanced Audio Codec
Format profile : LC
Codec ID : 40
Duration : 11 min 18 s
Bit rate mode : Variable
Bit rate : 157 kb/s
Maximum bit rate : 307 kb/s
Channel(s) : 2 channels
Channel positions : Front: L R
Sampling rate : 44.1 kHz
Frame rate : 43.066 FPS (1024 spf)
Compression mode : Lossy
Stream size : 12.7 MiB (2%)
Title : Building.The.Sun.The.250.Million.Degree.Problem.1080p.HDTV.x264.AAC
Encoded date : UTC 2017-11-03 19:45:57
Tagged date : UTC 2017-11-03 19:45:58

Text
ID : 3
Format : Timed Text
Codec ID : tx3g
Duration : 11 min 1 s
Bit rate mode : Variable
Bit rate : 112 b/s
Stream size : 9.04 KiB (0%)
Title : Building.The.Sun.The.250.Million.Degree.Problem.1080p.HDTV.x264.AAC
Forced : No
Encoded date : UTC 2017-11-03 19:45:58
Tagged date : UTC 2017-11-03 19:45:58
Screenshots

Rockhound - Building the Sun: The 250 Million Degree Problem (2017)

Rockhound - Building the Sun: The 250 Million Degree Problem (2017)

Rockhound - Building the Sun: The 250 Million Degree Problem (2017)

Welcome to my blog - daily update!

Rockhound - Building the Sun: The 250 Million Degree Problem (2017)