Tags
Language
Tags

BBC - Burma with Simon Reeve: Series 1 (2018)

Posted By: notbanned
1080p (FullHD) / HDTV IMDb
BBC - Burma with Simon Reeve: Series 1 (2018)

BBC - Burma with Simon Reeve: Series 1 (2018)
HDTV | 1920x1080 | .MKV/AVC @ 4597 Kbps | 2x~53min | 3.74 GiB
Audio: English MP2 192 kbps, 2 channels | Subs: English
Genre: Documentary

Adventurer and broadcaster Simon Reeve heads to beautiful and troubled Burma - or Myanmar, as it is now officially called - for a new two-part series. Cut off for decades under military rule, the country now has a democratically elected government led by world-famous Nobel laureate Aung San Suu Kyi. But in August 2017, the world was left stunned when a brutal military operation drove hundreds of thousands of ethnic Rohingya Muslims from their homes.
Part 1: 1
In this first episode, Simon travels to Burma to find out the roots of this crisis - as well as heading to Bangladesh to witness the drama that is still unfolding. He begins his journey in the biggest city in the country, Yangon, and drives north into Burma's Buddhist heartlands and the stunning ancient capital of Bagan - a sight that rivals the great wonders of the world. He meets the monks who supported the people through the darkest days of dictatorship. And he is granted an audience with some of the most contentious figures in the country - ultranationalist monks preaching hate against the country's Muslim Rohingya. Stopped from visiting the scene of the military crackdown against the Rohingya, Simon travels to Bangladesh to meet the refugees traumatised by the violence

Part 2:
The second of a two-part series, in which adventurer and broadcaster Simon Reeve travels deeper into beautiful and troubled Burma. Simon journeys up the vast Irrawaddy River to the old royal capital of Mandalay, home to an exotic market for precious jade. In Burma's mountainous highlands, he experiences the country's vibrant ethnic heritage at an extraordinary and explosive fire-balloon festival, Burma is a melting pot of different ethnic groups, and having seen first-hand the suffering of the Rohingya people on the first leg of his journey, Simon now travels secretly into one of Burma's many other conflict zones to meet a huge rebel army who have been fighting the Burmese military for decades.

General
Unique ID : 297528690786347812709694609638368484063 (0xDFD5F1057CAF8B876CDAFF9FF6F81ADF)
Complete name : Burma.With.Simon.Reeve.Part.1.1080p.mkv
Format : Matroska
Format version : Version 4 / Version 2
File size : 1.81 GiB
Duration : 53 min 58 s
Overall bit rate : 4 791 kb/s

Video
ID : 1
Format : AVC
Format/Info : Advanced Video Codec
Format profile : High@L4
Format settings, CABAC : Yes
Format settings, ReFrames : 4 frames
Codec ID : V_MPEG4/ISO/AVC
Duration : 53 min 58 s
Bit rate : 4 597 kb/s
Width : 1 920 pixels
Height : 1 080 pixels
Display aspect ratio : 16:9
Frame rate mode : Variable
Frame rate : 25.148 FPS
Original frame rate : 25.000 FPS
Standard : Component
Color space : YUV
Chroma subsampling : 4:2:0
Bit depth : 8 bits
Scan type : MBAFF
Bits/(Pixel*Frame) : 0.088
Stream size : 1.73 GiB (96%)
Default : Yes
Forced : No
Color range : Limited
Color primaries : BT.709
Transfer characteristics : BT.709
Matrix coefficients : BT.709

Audio
ID : 2
Format : MPEG Audio
Format version : Version 1
Format profile : Layer 2
Codec ID : A_MPEG/L2
Codec ID/Hint : MP2
Duration : 53 min 58 s
Bit rate mode : Constant
Bit rate : 192 kb/s
Channel(s) : 2 channels
Sampling rate : 48.0 kHz
Frame rate : 41.667 FPS (1152 spf)
Compression mode : Lossy
Stream size : 74.1 MiB (4%)
Language : English
Default : Yes
Forced : No

Text
ID : 3
Format : UTF-8
Codec ID : S_TEXT/UTF8
Codec ID/Info : UTF-8 Plain Text
Duration : 53 min 39 s
Bit rate : 72 b/s
Count of elements : 690
Stream size : 28.4 KiB (0%)
Language : English
Default : No
Forced : No


Screenshots:

BBC - Burma with Simon Reeve: Series 1 (2018)

BBC - Burma with Simon Reeve: Series 1 (2018)

BBC - Burma with Simon Reeve: Series 1 (2018)

BBC - Burma with Simon Reeve: Series 1 (2018)