Tags
Language
Tags

Bye / Adiós (2019)

Posted By: RSU75
1080p (FullHD) / BDRip IMDb
Bye / Adiós (2019)

Bye / Adiós (2019)
BDRip 1080p | MKV | AVC, 1920x804, ~ 3.7 Mbps | 1hr 54mn | 4.08 GB | Spanish (Español): DTS, 6 ch, 1510 kbps
BDRip 720p | MKV | AVC, 1280x536, ~ 2.5 Mbps | 1hr 54mn | 2.31 GB | Spanish (Español): AC3, 6 ch, 448 kbps
Subtitles: English
Genre: Drama, Thriller



Director: Paco Cabezas
Writer: Paco Cabezas, Carmen Jimenez
Stars: Mario Casas, Natalia de Molina, Ruth Díaz

City of Sevilla. Sevilla, Andalucía (south to Spain). The neighborhood of the Las 3.000 Viviendas (The 3,000 Homes or "The 3,000" for short) is a ruthless and cruel place where police, law and order have no power. In this underworld of drug and crime, Juan Santos is a con man with freedom supervised who goes out from the jail to celebrate with his wife Triana the First Communion of Estrella, their only daughter. But during the celebration, Juan's younger brother Chico and uncle Andrés appear as uninvited guests to offer Juan a business to pass drug into the jail. Rejecting it by fear to lose his prison privileges, Juan, Triana and Estrella back home in car when they have an accident being beaten by another car, killing the child. At the same time, veteran cop Manuel Santacana and younger partner Eli arrive to a murder scene to investigate the killing of four drug traffickers Romanians, finding in it the cops Barroso and his new partner rookie Nando, Manuel's son, being noticed about …

Extras:
- None




General
Unique ID : 189270479597288892151307414220158012903 (0x8E642B1DDE22C0AAA7F69F0E18E80DE7)
Complete name : F:\Bye.2019.1p\Bye.2019.1p.mkv
Format : Matroska
Format version : Version 4 / Version 2
File size : 4.08 GiB
Duration : 1 h 54 min
Overall bit rate : 5 098 kb/s
Movie name : Release RSU75
Encoded date : UTC 2020-03-31 14:35:12
Writing application : mkvmerge v6.6.0 ('The Edge Of The In Between') built on Dec 1 2013 17:55:00
Writing library : libebml v1.3.0 + libmatroska v1.4.1

Video
ID : 1
Format : AVC
Format/Info : Advanced Video Codec
Format profile : High@L4.1
Format settings : CABAC / 4 Ref Frames
Format settings, CABAC : Yes
Format settings, ReFrames : 4 frames
Codec ID : V_MPEG4/ISO/AVC
Duration : 1 h 54 min
Bit rate : 3 488 kb/s
Nominal bit rate : 3 700 kb/s
Width : 1 920 pixels
Height : 804 pixels
Display aspect ratio : 2.40:1
Frame rate mode : Constant
Frame rate : 24.000 FPS
Color space : YUV
Chroma subsampling : 4:2:0
Bit depth : 8 bits
Scan type : Progressive
Bits/(Pixel*Frame) : 0.094
Stream size : 2.79 GiB (68%)
Writing library : x264 core 148 r2643 5c65704
Encoding settings : cabac=1 / ref=4 / deblock=1:0:0 / analyse=0x3:0x113 / me=umh / subme=8 / psy=1 / psy_rd=1.00:0.00 / mixed_ref=1 / me_range=24 / chroma_me=1 / trellis=1 / 8x8dct=1 / cqm=0 / deadzone=21,11 / fast_pskip=1 / chroma_qp_offset=-2 / threads=3 / lookahead_threads=1 / sliced_threads=0 / nr=0 / decimate=1 / interlaced=0 / bluray_compat=0 / constrained_intra=0 / bframes=3 / b_pyramid=0 / b_adapt=2 / b_bias=0 / direct=3 / weightb=1 / open_gop=0 / weightp=2 / keyint=250 / keyint_min=25 / scenecut=40 / intra_refresh=0 / rc_lookahead=40 / rc=abr / mbtree=1 / bitrate=3700 / ratetol=1.0 / qcomp=0.60 / qpmin=10 / qpmax=51 / qpstep=4 / ip_ratio=1.41 / aq=1:1.00
Language : English
Default : Yes
Forced : No

Audio
ID : 2
Format : DTS
Format/Info : Digital Theater Systems
Codec ID : A_DTS
Duration : 1 h 54 min
Bit rate mode : Constant
Bit rate : 1 509 kb/s
Channel(s) : 6 channels
Channel layout : C L R Ls Rs LFE
Sampling rate : 48.0 kHz
Frame rate : 93.750 FPS (512 SPF)
Bit depth : 24 bits
Compression mode : Lossy
Stream size : 1.21 GiB (30%)
Title : Surround 5.1
Language : Spanish
Default : No
Forced : No

Text
ID : 3
Format : PGS
Muxing mode : zlib
Codec ID : S_HDMV/PGS
Codec ID/Info : Picture based subtitle format used on BDs/HD-DVDs
Language : English
Default : Yes
Forced : No

Menu
00:00:00.000 : en:Chapter 01
00:10:29.375 : en:Chapter 02
00:18:31.166 : en:Chapter 03
00:29:25.541 : en:Chapter 04
00:38:19.958 : en:Chapter 05
00:46:50.750 : en:Chapter 06
00:56:33.833 : en:Chapter 07
01:08:54.333 : en:Chapter 08
01:16:37.791 : en:Chapter 09
01:26:49.208 : en:Chapter 10
01:35:55.250 : en:Chapter 11
01:49:35.500 : en:Chapter 12





General
Unique ID : 193867856802080918283507526968563180792 (0x91D99750298FF26A9551C382406FA4F8)
Complete name : F:\Bye.2019.7p\Bye.2019.7p.mkv
Format : Matroska
Format version : Version 4 / Version 2
File size : 2.31 GiB
Duration : 1 h 54 min
Overall bit rate : 2 883 kb/s
Movie name : Release RSU75
Encoded date : UTC 2020-03-31 17:46:30
Writing application : mkvmerge v6.6.0 ('The Edge Of The In Between') built on Dec 1 2013 17:55:00
Writing library : libebml v1.3.0 + libmatroska v1.4.1

Video
ID : 1
Format : AVC
Format/Info : Advanced Video Codec
Format profile : High@L4.1
Format settings : CABAC / 4 Ref Frames
Format settings, CABAC : Yes
Format settings, ReFrames : 4 frames
Codec ID : V_MPEG4/ISO/AVC
Duration : 1 h 54 min
Bit rate : 2 377 kb/s
Nominal bit rate : 2 500 kb/s
Width : 1 280 pixels
Height : 536 pixels
Display aspect ratio : 2.40:1
Frame rate mode : Constant
Frame rate : 24.000 FPS
Color space : YUV
Chroma subsampling : 4:2:0
Bit depth : 8 bits
Scan type : Progressive
Bits/(Pixel*Frame) : 0.144
Stream size : 1.90 GiB (82%)
Writing library : x264 core 148 r2643 5c65704
Encoding settings : cabac=1 / ref=4 / deblock=1:0:0 / analyse=0x3:0x113 / me=umh / subme=8 / psy=1 / psy_rd=1.00:0.00 / mixed_ref=1 / me_range=24 / chroma_me=1 / trellis=1 / 8x8dct=1 / cqm=0 / deadzone=21,11 / fast_pskip=1 / chroma_qp_offset=-2 / threads=3 / lookahead_threads=1 / sliced_threads=0 / nr=0 / decimate=1 / interlaced=0 / bluray_compat=0 / constrained_intra=0 / bframes=3 / b_pyramid=0 / b_adapt=2 / b_bias=0 / direct=3 / weightb=1 / open_gop=0 / weightp=2 / keyint=250 / keyint_min=25 / scenecut=40 / intra_refresh=0 / rc_lookahead=40 / rc=abr / mbtree=1 / bitrate=2500 / ratetol=1.0 / qcomp=0.60 / qpmin=10 / qpmax=51 / qpstep=4 / ip_ratio=1.41 / aq=1:1.00
Language : English
Default : Yes
Forced : No

Audio
ID : 2
Format : AC-3
Format/Info : Audio Coding 3
Commercial name : Dolby Digital
Codec ID : A_AC3
Duration : 1 h 54 min
Bit rate mode : Constant
Bit rate : 448 kb/s
Channel(s) : 6 channels
Channel layout : L R C LFE Ls Rs
Sampling rate : 48.0 kHz
Frame rate : 31.250 FPS (1536 SPF)
Bit depth : 16 bits
Compression mode : Lossy
Stream size : 367 MiB (16%)
Title : Surround 5.1
Language : Spanish
Service kind : Complete Main
Default : Yes
Forced : No

Text
ID : 3
Format : PGS
Muxing mode : zlib
Codec ID : S_HDMV/PGS
Codec ID/Info : Picture based subtitle format used on BDs/HD-DVDs
Language : English
Default : Yes
Forced : No

Menu
00:00:00.000 : en:Chapter 01
00:10:29.375 : en:Chapter 02
00:18:31.166 : en:Chapter 03
00:29:25.541 : en:Chapter 04
00:38:19.958 : en:Chapter 05
00:46:50.750 : en:Chapter 06
00:56:33.833 : en:Chapter 07
01:08:54.333 : en:Chapter 08
01:16:37.791 : en:Chapter 09
01:26:49.208 : en:Chapter 10
01:35:55.250 : en:Chapter 11
01:49:35.500 : en:Chapter 12




Screenshots 1080p (click to enlarge to original size):

Bye / Adiós (2019)

Bye / Adiós (2019)

Bye / Adiós (2019)



Screenshots 720p (click to enlarge to original size):

Bye / Adiós (2019)






If you like this release please visit my blog
In it you will find "BDRip" releases in different languages