Tags
Language
Tags

Channel 4 - The Great Wall of China (2008)

Posted By: Tutorial
Channel 4 - The Great Wall of China (2008)

Channel 4 - The Great Wall of China (2008)
DVDRip | 704 x 400 | .AVI/XviD @ 1790 Kbps | 1 h 45 min | 1.46 GB
Audio: English AC-3 192 Kbps, 2 channels | Subs: None
Genre: Documentary, History, Travel

There are few objects as compelling or iconic as the Great Wall of China and this feature length drama doc takes on this monumental subject with typical style and scale of ambition. Recently shown on Channel 4 this 1.45min film traces the story of the building of the wall in its latest, greatest guise the colossal brick structure that everyone recognizes as the Wall, from the terror of apocalyptic Mongol attacks in 1550 the Ming dynasty’s own 9/11 - through the founding of the nation s first professional army to the building of the wall itself and its testing in battle. The drama has been likened to modern classic Chinese features and the documentary suitably compelling bringing us face to face with the descendants of the wall's builders, taking us to the remotest reaches of the wall itself and into the heart of China's legendary People's Liberation Army the first time a western film crew has ever been allowed such access. All in all, like the wall itself, a monumental tour de force. Modern engineers and some of the world's leading historians are still fascinated by one of the great engineering mysteries of humankind: The Great Wall of China. This feature length documentary-drama traces the story of its construction, and brings us face-to-face with the descendants of the wall's builders.
also You can look my other last: History-posts

Related Documentaries:
NHK - China: The Great Dragon ...ttle to Clear the Skies (2017)
BBC - China's Terracotta Army (2007)
BBC - Art of China (2014)
The Search for China's Blue Hole (2015)
Channel 4 - The Last Emperor of China (2008)
Channel 4 - Our Guy in China: Series 1 (2016)
Channel 4 - China's Forgotten Emperor (2016)
ITV - China, America and Belgium (2016)
PBS Nova - Treasures of the Earth: Power (2016)
BBC - James Joyce Goes to China (2016)
BBC - China's Terracotta Army (2007)
The First Emperor - The Man who Made China (2007)

General
Complete name : CH4.The.Great.Wall.of.China.avi
Format : AVI
Format/Info : Audio Video Interleave
File size : 1.46 GiB
Duration : 1 h 45 min
Overall bit rate : 1 989 kb/s
Writing application : VirtualDubMod 1.5.4.1 (build 2178/release)
Writing library : VirtualDubMod build 2178/release

Video
ID : 0
Format : MPEG-4 Visual
Format profile : Advanced Simple@L5
Format settings, BVOP : 1
Format settings, QPel : No
Format settings, GMC : No warppoints
Format settings, Matrix : Custom
Codec ID : XVID
Codec ID/Hint : XviD
Duration : 1 h 45 min
Bit rate : 1 790 kb/s
Width : 704 pixels
Height : 400 pixels
Display aspect ratio : 16:9
Frame rate : 25.000 FPS
Color space : YUV
Chroma subsampling : 4:2:0
Bit depth : 8 bits
Scan type : Progressive
Compression mode : Lossy
Bits/(Pixel*Frame) : 0.254
Stream size : 1.31 GiB (90%)
Writing library : XviD 1.2.1 (UTC 2008-12-04)

Audio
ID : 1
Format : AC-3
Format/Info : Audio Coding 3
Format settings, Endianness : Big
Codec ID : 2000
Duration : 1 h 45 min
Bit rate mode : Constant
Bit rate : 192 kb/s
Channel(s) : 2 channels
Channel positions : Front: L R
Sampling rate : 48.0 kHz
Frame rate : 31.250 FPS (1536 spf)
Bit depth : 16 bits
Compression mode : Lossy
Stream size : 144 MiB (10%)
Alignment : Split accross interleaves
Interleave, duration : 96 ms (2.40 video frames)
Interleave, preload duration : 96 ms
Service kind : Complete Main
Screenshots

Channel 4 - The Great Wall of China (2008)

Channel 4 - The Great Wall of China (2008)

Channel 4 - The Great Wall of China (2008)

Channel 4 - The Great Wall of China (2008)

Channel 4 - The Great Wall of China (2008)

Welcome to my blog - daily update!

Channel 4 - The Great Wall of China (2008)