Tags
Language
Tags

C.H.U.D. II: Bud the Chud (1989)

Posted By: Without
C.H.U.D. II: Bud the Chud (1989)

C.H.U.D. II: Bud the Chud (1989)
BDRip 1080p | MKV | 1920x1080 | AVC@12.3 Mb/s | English FLAC@616 kb/s
2 channels | 1 h 24 min | 7.64 GB
Genre: Comedy, Horror, Sci-Fi

A military experiment to create a race of super-warriors go awry, and legions of murderous zombies are unleased upon a surburan neighborhood.



General
Complete name : G:\C.H.U.D.II.Bud.the.Chud.1989.1080p.BluRay.x264-SADPANDA\C.H.U.D.II.Bud.the.Chud.1989.1080p.BluRay.x264-SADPANDA.mkv
Format : Matroska
Format version : Version 4 / Version 2
File size : 7.64 GiB
Duration : 1 h 24 min
Overall bit rate mode : Variable
Overall bit rate : 12.9 Mb/s
Encoded date : UTC 2017-01-26 14:14:21
Writing application : mkvmerge v9.8.0 ('Kuglblids') 64bit
Writing library : libebml v1.3.4 + libmatroska v1.4.5

Video
ID : 1
Format : AVC
Format/Info : Advanced Video Codec
Format profile : High@L4.1
Format settings, CABAC : Yes
Format settings, ReFrames : 4 frames
Codec ID : V_MPEG4/ISO/AVC
Duration : 1 h 24 min
Bit rate : 12.3 Mb/s
Width : 1 920 pixels
Height : 1 080 pixels
Display aspect ratio : 16:9
Frame rate mode : Constant
Frame rate : 23.976 (24000/1001) FPS
Color space : YUV
Chroma subsampling : 4:2:0
Bit depth : 8 bits
Scan type : Progressive
Bits/(Pixel*Frame) : 0.247
Stream size : 7.28 GiB (95%)
Writing library : x264 core 148 r2744 b97ae06
Encoding settings : cabac=1 / ref=4 / deblock=1:-3:-3 / analyse=0x3:0x113 / me=umh / subme=8 / psy=1 / psy_rd=1.00:0.25 / mixed_ref=1 / me_range=24 / chroma_me=1 / trellis=1 / 8x8dct=1 / cqm=0 / deadzone=21,11 / fast_pskip=1 / chroma_qp_offset=-4 / threads=30 / lookahead_threads=5 / sliced_threads=0 / nr=0 / decimate=1 / interlaced=0 / bluray_compat=0 / constrained_intra=0 / bframes=3 / b_pyramid=2 / b_adapt=1 / b_bias=0 / direct=3 / weightb=1 / open_gop=0 / weightp=2 / keyint=240 / keyint_min=24 / scenecut=40 / intra_refresh=0 / rc_lookahead=50 / rc=2pass / mbtree=1 / bitrate=12284 / ratetol=1.0 / qcomp=0.60 / qpmin=0 / qpmax=69 / qpstep=4 / cplxblur=20.0 / qblur=0.5 / ip_ratio=1.40 / aq=1:0.75
Default : Yes
Forced : No

Audio
ID : 2
Format : FLAC
Format/Info : Free Lossless Audio Codec
Codec ID : A_FLAC
Duration : 1 h 24 min
Bit rate mode : Variable
Bit rate : 616 kb/s
Channel(s) : 2 channels
Channel positions : Front: L R
Sampling rate : 48.0 kHz
Frame rate : 11.719 FPS (4096 spf)
Bit depth : 16 bits
Stream size : 374 MiB (5%)
Writing library : libFLAC 1.2.1 (UTC 2007-09-17)
Language : English
Default : Yes
Forced : No

Menu
00:00:00.000 : en:00:00:00.000
00:06:36.771 : en:00:06:36.771
00:11:13.506 : en:00:11:13.506
00:17:46.691 : en:00:17:46.691
00:27:29.565 : en:00:27:29.565
00:33:09.738 : en:00:33:09.738
00:43:21.891 : en:00:43:21.891
00:50:37.743 : en:00:50:37.743
00:55:53.058 : en:00:55:53.058
01:01:44.034 : en:01:01:44.034
01:09:10.271 : en:01:09:10.271
01:20:25.446 : en:01:20:25.446


BDRip 1080p Screenshots

C.H.U.D. II: Bud the Chud (1989)

C.H.U.D. II: Bud the Chud (1989)

C.H.U.D. II: Bud the Chud (1989)


Come Visit My Blog (•‿•)