Tags
Language
Tags

Cabin 28 (2017)

Posted By: Tavaz
1080p (FullHD) / BDRip IMDb
Cabin 28 (2017)

Cabin 28 (2017)
BDRip | MKV | 1920x804 | English | H265 @ 2557 kbps | AC-3 @ 448 kbps | 1 h 18 min | 1.65 GiB
Genre: Horror

Based on one of the most infamous unsolved murder cases in American history, this film follows a family who are terrorized at an isolated cabin by mysterious assailants.

ca24daa82901436aa1e566bb7e0f4f0f.mkv (1.6 GB)



General
Unique ID : 252559413646850960076784034307266367898 (0xBE012C7ABEA3ACA091F58E963404D19A)
Complete name : ./ca24daa82901436aa1e566bb7e0f4f0f.mkv
Format : Matroska
Format version : Version 2
File size : 1.65 GiB
Duration : 1 h 18 min
Overall bit rate : 3 006 kb/s
Movie name : Cabin 28 (2017) BluRay 10Bit 1080p DD5.1 H265-d3g
Encoded date : UTC 2018-03-13 10:51:10
Writing application : DVDFab 10.0.8.4
Writing library : libebml v1.3.4 + libmatroska v1.4.5

Video
ID : 1
Format : HEVC
Format/Info : High Efficiency Video Coding
Format profile : Main 10@L4@Main
Codec ID : V_MPEGH/ISO/HEVC
Duration : 1 h 18 min
Bit rate : 2 558 kb/s
Width : 1 920 pixels
Height : 804 pixels
Display aspect ratio : 2.40:1
Frame rate mode : Constant
Frame rate : 25.000 FPS
Color space : YUV
Chroma subsampling : 4:2:0
Bit depth : 10 bits
Bits/(Pixel*Frame) : 0.066
Stream size : 1.40 GiB (85%)
Default : Yes
Forced : No
Color range : Limited
Color primaries : BT.709
Transfer characteristics : BT.709
Matrix coefficients : BT.709

Audio
ID : 2
Format : AC-3
Format/Info : Audio Coding 3
Format settings, Endianness : Big
Codec ID : A_AC3
Duration : 1 h 18 min
Bit rate mode : Constant
Bit rate : 448 kb/s
Channel(s) : 6 channels
Channel positions : Front: L C R, Side: L R, LFE
Sampling rate : 48.0 kHz
Frame rate : 31.250 FPS (1536 SPF)
Bit depth : 16 bits
Compression mode : Lossy
Stream size : 251 MiB (15%)
Language : English
Service kind : Complete Main
Default : Yes
Forced : No

Menu
00:00:00.000 : en:(01)00:00:00:000
00:14:56.080 : en:(02)00:14:56:080
00:25:04.280 : en:(03)00:25:04:280
00:37:13.400 : en:(04)00:37:13:400
00:45:13.560 : en:(05)00:45:13:560
00:54:27.080 : en:(06)00:54:27:080
01:18:24.280 : en:(07)01:18:24:280





Cabin 28 (2017)


Cabin 28 (2017)


Cabin 28 (2017)


Cabin 28 (2017)


Cabin 28 (2017)