Tags
Language
Tags

Cabin 28 (2017)

Posted By: Tavaz
1080p (FullHD) / WEB-DL IMDb
Cabin 28 (2017)

Cabin 28 (2017)
WEB-DL | MKV | 1920x798 | English | H264 @ 4592 kbps | AC-3 @ 384 kbps | 1 h 23 min | 2.91 GiB
Subtitles: English
Genre: Horror

Based on one of the most infamous unsolved murder cases in American history, this film follows a family who are terrorized at an isolated cabin by mysterious assailants.

6a691d30621f44459d308bceba74498b.mkv (2.9 GB)



General
Unique ID : 18858451244646392208355841930557724755 (0xE30016EB7FC02871A458952C7551853)
Complete name : ./6a691d30621f44459d308bceba74498b.mkv
Format : Matroska
Format version : Version 4 / Version 2
File size : 2.91 GiB
Duration : 1 h 23 min
Overall bit rate : 4 978 kb/s
Movie name : Cabin.28.2017.1080p.WEB-DL.DD5.1.H264-FGT
Encoded date : UTC 2018-01-29 23:38:24
Writing application : mkvmerge v20.0.0 ('I Am The Sun') 64-bit
Writing library : libebml v1.3.5 + libmatroska v1.4.8
Cover : Yes
Attachments : cover_land.jpg / small_cover.jpg / small_cover_land.jpg / cover.jpg

Video
ID : 1
Format : AVC
Format/Info : Advanced Video Codec
Format profile : High@L4
Format settings : CABAC / 5 Ref Frames
Format settings, CABAC : Yes
Format settings, RefFrames : 5 frames
Format settings, GOP : N=1
Codec ID : V_MPEG4/ISO/AVC
Duration : 1 h 23 min
Bit rate : 4 592 kb/s
Width : 1 920 pixels
Height : 798 pixels
Display aspect ratio : 2.40:1
Frame rate mode : Constant
Frame rate : 23.976 (23976/1000) FPS
Color space : YUV
Chroma subsampling : 4:2:0
Bit depth : 8 bits
Scan type : Progressive
Bits/(Pixel*Frame) : 0.125
Stream size : 2.68 GiB (92%)
Title : Cabin.28.2017.1080p.WEB-DL.DD5.1.H264-FGT
Language : English
Default : Yes
Forced : No
Color range : Limited
Color primaries : BT.709
Transfer characteristics : BT.709
Matrix coefficients : BT.709

Audio
ID : 2
Format : AC-3
Format/Info : Audio Coding 3
Format settings, Endianness : Big
Codec ID : A_AC3
Duration : 1 h 23 min
Bit rate mode : Constant
Bit rate : 384 kb/s
Channel(s) : 6 channels
Channel positions : Front: L C R, Side: L R, LFE
Sampling rate : 48.0 kHz
Frame rate : 31.250 FPS (1536 SPF)
Bit depth : 16 bits
Compression mode : Lossy
Stream size : 230 MiB (8%)
Title : Cabin.28.2017.1080p.WEB-DL.DD5.1.H264-FGT
Language : English
Service kind : Complete Main
Default : Yes
Forced : No

Text
ID : 3
Format : UTF-8
Codec ID : S_TEXT/UTF8
Codec ID/Info : UTF-8 Plain Text
Duration : 1 h 21 min
Bit rate : 49 b/s
Count of elements : 1052
Stream size : 29.5 KiB (0%)
Language : English
Default : Yes
Forced : No

Menu
00:00:00.000 : en:1
00:03:32.962 : en:2
00:09:15.471 : en:3
00:14:12.726 : en:4
00:20:29.310 : en:5
00:24:15.536 : en:6
00:28:41.093 : en:7
00:33:06.733 : en:8
00:36:25.473 : en:9
00:41:45.584 : en:10
00:45:14.084 : en:11
00:47:10.325 : en:12
00:53:52.727 : en:13
00:58:36.635 : en:14
01:06:56.593 : en:15
01:09:20.570 : en:16





Cabin 28 (2017)


Cabin 28 (2017)


Cabin 28 (2017)


Cabin 28 (2017)


Cabin 28 (2017)