Caillou's Holiday Movie (2003)

Posted By: Tavaz
SD / DVDRip IMDb
Caillou's Holiday Movie (2003)

Caillou's Holiday Movie (2003)
DVDRip | MKV | 712x474 | English | H264 @ 1023 kbps | AC-3 @ 192 kbps | 1 h 12 min | 644 MiB
Subtitles: English
Genre: Animation, Comedy, Romance, Family

Caillou learns about winter holiday traditions from around the world. He and his entire family celebrate Christmas, sharing, giving and caring.

41aa497e5f1e4b44af43f32eac7b753b.mkv (644.4 MB)



General
Unique ID : 217279017955165953846421484059720665088 (0xA3766AACA26278ECBCED6634553BC800)
Complete name : ./41aa497e5f1e4b44af43f32eac7b753b.mkv
Format : Matroska
Format version : Version 4 / Version 2
File size : 644 MiB
Duration : 1 h 12 min
Overall bit rate : 1 240 kb/s
Encoded date : UTC 2018-05-08 23:20:03 / UTC 2018-04-29T18:01:57Z
Writing application : mkvmerge v16.0.0 ('Protest') 64-bit
Writing library : libebml v1.3.5 + libmatroska v1.4.8 / Lavf57.7.2

Video
ID : 1
Format : AVC
Format/Info : Advanced Video Codec
Format profile : High@L4.1
Format settings : CABAC / 16 Ref Frames
Format settings, CABAC : Yes
Format settings, RefFrames : 16 frames
Codec ID : V_MPEG4/ISO/AVC
Duration : 1 h 12 min
Bit rate : 1 023 kb/s
Width : 712 pixels
Height : 474 pixels
Display aspect ratio : 4:3
Original display aspect ratio : 4:3
Frame rate mode : Constant
Frame rate : 23.976 (24000/1001) FPS
Color space : YUV
Chroma subsampling : 4:2:0
Bit depth : 8 bits
Scan type : Progressive
Bits/(Pixel*Frame) : 0.126
Stream size : 532 MiB (83%)
Writing library : x264 core 148 r2708 86b7198
Encoding settings : cabac=1 / ref=16 / deblock=1:-3:-3 / analyse=0x3:0x133 / me=umh / subme=10 / psy=1 / psy_rd=1.00:0.00 / mixed_ref=0 / me_range=32 / chroma_me=1 / trellis=2 / 8x8dct=1 / cqm=0 / deadzone=21,11 / fast_pskip=0 / chroma_qp_offset=-2 / threads=6 / lookahead_threads=1 / sliced_threads=0 / nr=0 / decimate=0 / interlaced=0 / bluray_compat=0 / constrained_intra=0 / bframes=16 / b_pyramid=2 / b_adapt=2 / b_bias=0 / direct=3 / weightb=1 / open_gop=0 / weightp=1 / keyint=240 / keyint_min=24 / scenecut=40 / intra_refresh=0 / rc_lookahead=60 / rc=crf / mbtree=0 / crf=18.0 / qcomp=0.60 / qpmin=0 / qpmax=69 / qpstep=4 / vbv_maxrate=62500 / vbv_bufsize=78125 / crf_max=0.0 / nal_hrd=none / filler=0 / ip_ratio=1.40 / pb_ratio=1.30 / aq=2:1.00
Language : English
Default : Yes
Forced : No
Color range : Limited
Color primaries : BT.601 NTSC
Transfer characteristics : BT.709
Matrix coefficients : BT.601
Statistics Tags Issue : mkvmerge v16.0.0 ('Protest') 64-bit 2018-05-08 23:20:03 / mkvmerge v16.0.0 ('Protest') 64-bit 2018-05-08 23:20:03 / UTC 2018-04-29T18:01:57Z
FromStats_BitRate : 1046070
FromStats_Duration : 01:12:39.480000000
FromStats_FrameCount : 104523
FromStats_StreamSize : 570040408

Audio
ID : 2
Format : AC-3
Format/Info : Audio Coding 3
Format settings, Endianness : Big
Codec ID : A_AC3
Duration : 1 h 12 min
Bit rate mode : Constant
Bit rate : 192 kb/s
Channel(s) : 2 channels
Channel positions : Front: L R
Sampling rate : 48.0 kHz
Frame rate : 31.250 FPS (1536 SPF)
Bit depth : 16 bits
Compression mode : Lossy
Stream size : 99.8 MiB (15%)
Language : English
Service kind : Complete Main
Default : Yes
Forced : No
Statistics Tags Issue : mkvmerge v16.0.0 ('Protest') 64-bit 2018-05-08 23:20:03 / mkvmerge v16.0.0 ('Protest') 64-bit 2018-05-08 23:20:03 / UTC 2018-04-29T18:01:57Z
FromStats_BitRate : 192000
FromStats_Duration : 01:12:39.328000000
FromStats_FrameCount : 136229
FromStats_StreamSize : 104623872

Text
ID : 3
Format : UTF-8
Codec ID : S_TEXT/UTF8
Codec ID/Info : UTF-8 Plain Text
Language : English
Default : Yes
Forced : No
Statistics Tags Issue : mkvmerge v16.0.0 ('Protest') 64-bit 2018-05-08 23:20:03 / mkvmerge v16.0.0 ('Protest') 64-bit 2018-05-08 23:20:03 / UTC 2018-04-29T18:01:57Z
FromStats_BitRate : 89
FromStats_Duration : 01:10:56.150000000
FromStats_FrameCount : 1465
FromStats_StreamSize : 47768





Caillou's Holiday Movie (2003)


Caillou's Holiday Movie (2003)


Caillou's Holiday Movie (2003)


Caillou's Holiday Movie (2003)


Caillou's Holiday Movie (2003)