Tags
Language
Tags

PBS - The California 9 11 Memorial (2021)

Posted By: Tutorial
1080p (FullHD) / HDTV
PBS - The California 9 11 Memorial (2021)

PBS - The California 9 11 Memorial (2021)
HDTV | 1920 x 1080 | .MP4/AVC @ 4573 Kbps | 56 min 49 s | 1.86 GB
Audio: English AAC 99.6 Kbps, 2 ch | Subs: English
Genre: Documentary

Valley PBS and The California 9/11 Memorial, commemorate the 20th Anniversary of the September 11th attacks with a special documentary looking at the efforts of Valley residents to honour the lives lost, educate students, and remember the unbreakable American spirit.

General
Complete name : The.California.9.11.Memorial.mp4
Format : MPEG-4
Format profile : Base Media
Codec ID : isom (isom/iso2/avc1/mp41)
File size : 1.86 GiB
Duration : 56 min 49 s
Overall bit rate mode : Variable
Overall bit rate : 4 680 kb/s
Movie name : The.California.9.11.Memorial.1080p.HDTV.x264.AAC..org
Performer : VideoProc
Genre : Video
Writing application : Lavf58.29.100
Comment : The.California.9.11.Memorial.1080p.HDTV.x264.AAC..org

Video
ID : 1
Format : AVC
Format/Info : Advanced Video Codec
Format profile : High@L4.1
Format settings : 1 Ref Frames
Format settings, CABAC : No
Format settings, RefFrames : 1 frame
Format settings, GOP : M=1, N=12
Codec ID : avc1
Codec ID/Info : Advanced Video Coding
Duration : 56 min 49 s
Bit rate : 4 573 kb/s
Width : 1 920 pixels
Height : 1 080 pixels
Display aspect ratio : 16:9
Frame rate mode : Constant
Frame rate : 29.970 (30000/1001) FPS
Color space : YUV
Chroma subsampling : 4:2:0
Bit depth : 8 bits
Scan type : Progressive
Bits/(Pixel*Frame) : 0.074
Stream size : 1.82 GiB (98%)

Audio
ID : 2
Format : AAC
Format/Info : Advanced Audio Codec
Format profile : LC
Codec ID : mp4a-40-2
Duration : 56 min 49 s
Bit rate mode : Constant
Bit rate : 99.6 kb/s
Channel(s) : 2 channels
Channel positions : Front: L R
Sampling rate : 48.0 kHz
Frame rate : 46.875 FPS (1024 SPF)
Compression mode : Lossy
Stream size : 40.5 MiB (2%)
Default : Yes
Alternate group : 1

Text
ID : 3
Format : Timed Text
Muxing mode : sbtl
Codec ID : tx3g
Duration : 55 min 28 s
Bit rate mode : Variable
Bit rate : 91 b/s
Stream size : 36.8 KiB (0%)
Language : Avestan
Default : Yes
Forced : No
Alternate group : 3
Screenshots 720p WEB-DL

PBS - The California 9 11 Memorial (2021)

PBS - The California 9 11 Memorial (2021)

PBS - The California 9 11 Memorial (2021)

Welcome to my blog - daily update!