Kilaohm Productions - Cannibal Island (2009)

Posted By: vivid23
Kilaohm Productions - Cannibal Island (2009)

Kilaohm Productions - Cannibal Island (2009)
HDTV | 1280x720 | MKV/x264 @ 3562 Kbps | 75mn | Audio: English AC3 192 kbps, 2 channels | Subs: None | 2.02 GB
Genre: Documentary

In 1933 Stalin organizes a great "cleansing" of Moscow and Leningrad of all the citizens deemed a social nuisance. This film recounts the untold story of these 6000 "unwanted", sent to Nazino, a lost island in the middle of Siberia. Deported with no food, clothes or tools, these poor men, women and children suffered the torture of hunger until they had no choice but to devour each other… An unbelievable and terrible story that plays like a thriller and with a tension that lasts until the end.

Video
ID : 1
Format : AVC
Format/Info : Advanced Video Codec
Format profile : High@L4.1
Format settings, CABAC : Yes
Format settings, ReFrames : 8 frames
Muxing mode : Header stripping
Codec ID : V_MPEG4/ISO/AVC
Duration : 1h 15mn
Bit rate : 3 562 Kbps
Width : 1 280 pixels
Height : 720 pixels
Display aspect ratio : 16:9
Frame rate : 29.970 fps
Color space : YUV
Chroma subsampling : 4:2:0
Bit depth : 8 bits
Scan type : Progressive
Bits/(Pixel*Frame) : 0.129
Stream size : 1.88 GiB (93%)
Language : English

Audio
ID : 2
Format : AC-3
Format/Info : Audio Coding 3
Mode extension : CM (complete main)
Muxing mode : Header stripping
Codec ID : A_AC3
Duration : 1h 15mn
Bit rate mode : Constant
Bit rate : 192 Kbps
Channel(s) : 2 channels
Channel positions : Front: L R
Sampling rate : 48.0 KHz
Bit depth : 16 bits
Compression mode : Lossy
Stream size : 104 MiB (5%)


Kilaohm Productions - Cannibal Island (2009)

Kilaohm Productions - Cannibal Island (2009)


Feel free to contact me when links are dead