Tags
Language
Tags

Caravan of Courage / The Ewok Adventure (1984)

Posted By: Without
1080p (FullHD) / BDRip IMDb
Caravan of Courage / The Ewok Adventure (1984)

Caravan of Courage / The Ewok Adventure (1984)
BDRip 1080p | MKV | 1 h 36 min | 11.4 GB | 1920x1080 | AVC@13.7 Mb/s
Deutsch DTS-HD MA@1777 kb/s, 2 ch | Deutsch, English AC3@640 kb/s, 2 ch
Subs: English, Deutsch
Genre: Adventure | Family | Fantasy | Sci-Fi

Wicket the Ewok and his friends agree to help two shipwrecked human children, Mace and Cindel, on a quest to find their parents.

IMDB - Won 1 Primetime Emmy. Another 1 nomination.


General
The Ewok Adventure 1984 1080p DL BluRay DTS-HD MA 5.1.mkv
Format : Matroska
Format version : Version 4 / Version 2
File size : 11.4 GB
Duration : 1 h 36 min
Overall bit rate : 16.8 Mb/s
Movie name : Die Ewoks – Karawane der Tapferen (USA 1984) Ger Dub Alte Synchro by (Kenzo aka Asterixi) 4K UpsUHD2BD 1080p by SKELETTON
Encoded date : UTC 2020-10-10 11:44:26
Writing application : mkvmerge v51.0.0 ('I Wish') 64-bit
Writing library : libebml v1.4.0 + libmatroska v1.6.2

Video
ID : 1
Format : AVC
Format/Info : Advanced Video Codec
Format profile : High@L5
Format settings, CABAC : Yes
Format settings, ReFrames : 5 frames
Codec ID : V_MPEG4/ISO/AVC
Duration : 1 h 36 min
Bit rate : 13.7 Mb/s
Width : 1920 pixels
Height : 1080 pixels
Display aspect ratio : 16:9
Frame rate mode : Constant
Frame rate : 23.976 (24000/1001) FPS
Color space : YUV
Chroma subsampling : 4:2:0
Bit depth : 8 bits
Scan type : Progressive
Bits/(Pixel*Frame) : 0.276
Stream size : 9.30 GB (82%)
Title : Die Ewoks – Karawane der Tapferen (USA 1984) 4K UpsUHD2BD 1080p by SKELETTON
Writing library : x264 core 159 r2991 1771b55
Encoding settings : cabac=1 / ref=5 / deblock=1:0:0 / analyse=0x3:0x113 / me=hex / subme=8 / psy=1 / psy_rd=1.00:0.00 / mixed_ref=1 / me_range=16 / chroma_me=1 / trellis=2 / 8x8dct=1 / cqm=0 / deadzone=21,11 / fast_pskip=1 / chroma_qp_offset=-2 / threads=12 / lookahead_threads=2 / sliced_threads=0 / nr=0 / decimate=1 / interlaced=0 / bluray_compat=0 / constrained_intra=0 / bframes=3 / b_pyramid=2 / b_adapt=1 / b_bias=0 / direct=3 / weightb=1 / open_gop=0 / weightp=2 / keyint=119 / keyint_min=11 / scenecut=40 / intra_refresh=0 / rc_lookahead=50 / rc=crf / mbtree=1 / crf=18.0 / qcomp=0.60 / qpmin=0 / qpmax=69 / qpstep=4 / ip_ratio=1.40 / aq=1:1.00
Language : German
Default : Yes
Forced : Yes
Color range : Limited
Transfer characteristics : BT.709
Matrix coefficients : BT.709

Audio #1
ID : 2
Format : DTS
Format/Info : Digital Theater Systems
Format profile : MA / Core
Mode : 16
Format settings, Endianness : Big
Codec ID : A_DTS
Duration : 1 h 36 min
Bit rate mode : Variable / Constant
Bit rate : 1777 kb/s / 1509 kb/s
Channel(s) : 2 channels
Channel positions : Front: L R
Sampling rate : 48.0 kHz
Frame rate : 93.750 FPS (512 spf)
Bit depth : 16 bits
Compression mode : Lossless / Lossy
Stream size : 1.20 GB (11%)
Title : DTS-HD MA 2.0 VHS Synchro mixed mit OTon Asterixi
Language : German
Default : Yes
Forced : Yes

Audio #2
ID : 3
Format : AC-3
Format/Info : Audio Coding 3
Mode extension : CM (complete main)
Format settings, Endianness : Big
Codec ID : A_AC3
Duration : 1 h 36 min
Bit rate mode : Constant
Bit rate : 640 kb/s
Channel(s) : 2 channels
Channel positions : Front: L R
Sampling rate : 48.0 kHz
Frame rate : 31.250 FPS (1536 spf)
Bit depth : 16 bits
Compression mode : Lossy
Stream size : 443 MB (4%)
Title : Neusynchro Dolby Digital 2.0
Language : German
Default : No
Forced : No

Audio #3
ID : 4
Format : AC-3
Format/Info : Audio Coding 3
Mode extension : CM (complete main)
Format settings, Endianness : Big
Codec ID : A_AC3
Duration : 1 h 36 min
Bit rate mode : Constant
Bit rate : 640 kb/s
Channel(s) : 2 channels
Channel positions : Front: L R
Sampling rate : 48.0 kHz
Frame rate : 31.250 FPS (1536 spf)
Bit depth : 16 bits
Compression mode : Lossy
Stream size : 443 MB (4%)
Title : Dolby Digital 2.0
Language : English
Default : No
Forced : No

Text #1
ID : 5
Format : UTF-8
Codec ID : S_TEXT/UTF8
Codec ID/Info : UTF-8 Plain Text
Duration : 1 h 34 min
Bit rate : 24 b/s
Count of elements : 555
Stream size : 17.1 KiB (0%)
Title : German Full by SKELETTON
Language : German
Default : No
Forced : No

Text #2
ID : 6
Format : UTF-8
Codec ID : S_TEXT/UTF8
Codec ID/Info : UTF-8 Plain Text
Duration : 1 h 34 min
Bit rate : 27 b/s
Count of elements : 742
Stream size : 18.8 KiB (0%)
Title : English Full SDH by SKELETTON
Language : English
Default : No
Forced : No

Menu
00:00:00.000 : en:Chapter 01
00:06:22.340 : en:Chapter 02
00:11:32.980 : en:Chapter 03
00:16:00.500 : en:Chapter 04
00:22:39.610 : en:Chapter 05
00:25:53.930 : en:Chapter 06
00:31:53.450 : en:Chapter 07
00:36:09.420 : en:Chapter 08
00:41:16.060 : en:Chapter 09
00:46:47.140 : en:Chapter 10
00:55:42.710 : en:Chapter 11
00:58:36.220 : en:Chapter 12
01:06:55.470 : en:Chapter 13
01:11:53.020 : en:Chapter 14
01:24:08.250 : en:Chapter 15
01:32:40.090 : en:Chapter 16



BDRip 1080p Screenshots

Caravan of Courage / The Ewok Adventure (1984)

Caravan of Courage / The Ewok Adventure (1984)

Caravan of Courage / The Ewok Adventure (1984)

Caravan of Courage / The Ewok Adventure (1984)

Caravan of Courage / The Ewok Adventure (1984)

Caravan of Courage / The Ewok Adventure (1984)


Come Visit My Blog (•‿•)