Cars 3 (2017)

Posted By: Tavaz
Cars 3 (2017)

Cars 3 (2017)
BDRip | H264 | MKV | 1920x808 | French / English | H264 @ 8954 kbps | E-AC-3 @ 0 kbps | 1 h 42 min | 8.12 GiB
BDRip | H264 | MKV | 1280x536 | French | H264 @ 5469 kbps | E-AC-3 @ 0 kbps | 1 h 42 min | 4.55 GiB
DVDRip | MKV | 720x304 | French | H264 @ 1066 kbps | AAC @ 128 kbps | 1 h 42 min | 877 MiB
Genre: Animation, Adventure, Comedy

Dépassé par une nouvelle génération de bolides ultra-rapides, le célèbre Flash McQueen se retrouve mis sur la touche d’un sport qu’il adore. Pour revenir dans la course et prouver, en souvenir de Doc Hudson, que le n° 95 a toujours sa place dans la Piston Cup, il devra faire preuve d’ingéniosité. L’aide d’une jeune mécanicienne pleine d’enthousiasme, Cruz Ramirez, qui rêve elle aussi de victoire, lui sera d’un précieux secours…

General
Unique ID : 207888813355499931787132511892972805830 (0x9C65EDD7D2B47966B487A8F558749EC6)
Complete name : ./Cars.3.2017.TRUEFRENCH.720p.BluRay.x264.AC3-EXTREME.mkv
Format : Matroska
Format version : Version 4 / Version 2
File size : 4.55 GiB
Duration : 1 h 42 min
Overall bit rate : 6 365 kb/s
Encoded date : UTC 2017-11-18 00:09:38
Writing application : mkvmerge v7.8.0 ('River Man') 32bit built on Mar 27 2015 16:18:02
Writing library : libebml v1.3.1 + libmatroska v1.4.2

Video
ID : 2
Format : AVC
Format/Info : Advanced Video Codec
Format profile : High@L4.1
Format settings : CABAC / 5 Ref Frames
Format settings, CABAC : Yes
Format settings, RefFrames : 5 frames
Codec ID : V_MPEG4/ISO/AVC
Duration : 1 h 42 min
Bit rate : 5 469 kb/s
Width : 1 280 pixels
Height : 536 pixels
Display aspect ratio : 2.40:1
Frame rate mode : Constant
Frame rate : 23.976 (24000/1001) FPS
Color space : YUV
Chroma subsampling : 4:2:0
Bit depth : 8 bits
Scan type : Progressive
Bits/(Pixel*Frame) : 0.332
Stream size : 3.91 GiB (86%)
Writing library : x264 core 152 r2851 ba24899
Encoding settings : cabac=1 / ref=5 / deblock=1:0:0 / analyse=0x3:0x113 / me=umh / subme=8 / psy=1 / psy_rd=1.00:0.00 / mixed_ref=1 / me_range=16 / chroma_me=1 / trellis=1 / 8x8dct=1 / cqm=0 / deadzone=21,11 / fast_pskip=1 / chroma_qp_offset=-2 / threads=17 / lookahead_threads=2 / sliced_threads=0 / nr=0 / decimate=1 / interlaced=0 / bluray_compat=0 / constrained_intra=0 / bframes=3 / b_pyramid=2 / b_adapt=2 / b_bias=0 / direct=3 / weightb=1 / open_gop=0 / weightp=2 / keyint=240 / keyint_min=24 / scenecut=40 / intra_refresh=0 / rc_lookahead=50 / rc=2pass / mbtree=1 / bitrate=5469 / ratetol=1.0 / qcomp=0.60 / qpmin=0 / qpmax=69 / qpstep=4 / cplxblur=20.0 / qblur=0.5 / ip_ratio=1.40 / aq=1:1.00
Language : English
Default : Yes
Forced : No

Audio
ID : 1
Format : E-AC-3
Format/Info : Enhanced Audio Coding 3
Format settings, Endianness : Big
Codec ID : A_EAC3
Duration : 1 h 42 min
Bit rate mode : Constant
Bit rate : 500 b/s
Channel(s) : 6 channels
Channel positions : Front: L C R, Side: L R, LFE
Sampling rate : 48.0 kHz
Frame rate : 187.500 FPS (256 SPF)
Compression mode : Lossy
Stream size : 656 MiB (14%)
Language : French
Service kind : Complete Main
Default : Yes
Forced : Yes

Menu
00:00:00.000 : en:00:00:00.000
00:04:57.255 : en:00:04:57.255
00:10:54.988 : en:00:10:54.988
00:13:59.422 : en:00:13:59.422
00:18:15.344 : en:00:18:15.344
00:21:07.641 : en:00:21:07.641
00:34:08.880 : en:00:34:08.880
00:37:52.103 : en:00:37:52.103
00:42:44.812 : en:00:42:44.812
00:49:44.398 : en:00:49:44.398
00:53:57.734 : en:00:53:57.734
00:58:17.702 : en:00:58:17.702
00:59:27.522 : en:00:59:27.522
01:02:15.940 : en:01:02:15.940
01:06:35.533 : en:01:06:35.533
01:08:33.109 : en:01:08:33.109
01:15:48.126 : en:01:15:48.126
01:20:57.852 : en:01:20:57.852
01:29:42.418 : en:01:29:42.418
01:32:17.031 : en:01:32:17.031
01:34:00.092 : en:01:34:00.092





Cars 3 (2017)


Cars 3 (2017)


Cars 3 (2017)


Cars 3 (2017)