Tags
Language
Tags

BBC The Sky at Night - Cassini: The Gamechanger (2017)

Posted By: Tutorial
BBC The Sky at Night - Cassini: The Gamechanger (2017)

BBC The Sky at Night - Cassini: The Gamechanger (2017)
HDTV | 1920 x 1080 | .MKV/AVC @ 3196 Kbps | 29 min 17 s | 697 MB
Audio: English AAC 127 Kbps, 2 channels | Subs: English
Genre: Documentary, Science

On 15th September 2017, the most successful space mission of all time will come to a dramatic and violent end as the Cassini probe is sent crashing into the planet Saturn. This one space probe has rewritten the rules of space exploration, repeatedly surprising scientists with its incredible and unexpected observations. It discovered lakes of pure methane on Saturn's moon Titan, mysterious weather systems on Saturn itself, and all the conditions for life on the moon Enceladus. It has exceeded every expectation of its original design brief, and its mission duration has been extended not once but four times. Its legacy for science and for space travel is unique. Chris Lintott and Maggie Aderin-Pocock explore four major ways in which space exploration of the future has been changed by the discoveries of the Cassini mission.
also You can look my other last: Science-posts

General
Unique ID : 237148817242170091098099930031615719988 (0xB269336A449C4464A27D378046013A34)
Complete name : BBC.The.Sky.at.Night.2017.Cassini.The.Gamechanger.mkv
Format : Matroska
Format version : Version 4 / Version 2
File size : 697 MiB
Duration : 29 min 17 s
Overall bit rate : 3 325 kb/s
Movie name : The Sky at Night - Cassini: The Gamechanger
Encoded date : UTC 2017-09-11 07:23:18
Writing application : mkvmerge v15.0.0 ('Duel with the Devil') 64-bit
Writing library : libebml v1.3.5 + libmatroska v1.4.5

Video
ID : 1
Format : AVC
Format/Info : Advanced Video Codec
Format profile : High@L4.1
Format settings, CABAC : Yes
Format settings, ReFrames : 4 frames
Codec ID : V_MPEG4/ISO/AVC
Duration : 29 min 17 s
Bit rate : 3 196 kb/s
Width : 1 920 pixels
Height : 1 080 pixels
Display aspect ratio : 16:9
Frame rate mode : Constant
Frame rate : 25.000 FPS
Color space : YUV
Chroma subsampling : 4:2:0
Bit depth : 8 bits
Scan type : Progressive
Bits/(Pixel*Frame) : 0.062
Stream size : 670 MiB (96%)
Writing library : x264 core 152 r2851 MVGroup
Encoding settings : cabac=1 / ref=4 / deblock=1:0:0 / analyse=0x3:0x113 / me=umh / subme=9 / psy=1 / psy_rd=1.00:0.00 / mixed_ref=1 / me_range=32 / chroma_me=1 / trellis=1 / 8x8dct=1 / cqm=0 / deadzone=21,11 / fast_pskip=0 / chroma_qp_offset=-2 / threads=3 / lookahead_threads=1 / sliced_threads=0 / nr=0 / decimate=1 / interlaced=0 / bluray_compat=0 / constrained_intra=0 / bframes=5 / b_pyramid=2 / b_adapt=2 / b_bias=0 / direct=1 / weightb=1 / open_gop=0 / weightp=2 / keyint=250 / keyint_min=25 / scenecut=40 / intra_refresh=0 / rc_lookahead=40 / rc=crf / mbtree=1 / crf=21.0 / qcomp=0.60 / qpmin=0 / qpmax=69 / qpstep=4 / ip_ratio=1.40 / aq=1:1.00
Language : English
Default : Yes
Forced : No
Color range : Limited
Color primaries : BT.709
Transfer characteristics : BT.709
Matrix coefficients : BT.709

Audio
ID : 2
Format : AAC
Format/Info : Advanced Audio Codec
Format profile : LC
Codec ID : A_AAC
Duration : 29 min 17 s
Bit rate : 127 kb/s
Channel(s) : 2 channels
Channel positions : Front: L R
Sampling rate : 48.0 kHz
Frame rate : 46.875 FPS (1024 spf)
Compression mode : Lossy
Delay relative to video : 9 ms
Stream size : 26.5 MiB (4%)
Language : English
Default : Yes
Forced : No

Text
ID : 3
Format : UTF-8
Codec ID : S_TEXT/UTF8
Codec ID/Info : UTF-8 Plain Text
Duration : 28 min 49 s
Bit rate : 116 b/s
Count of elements : 498
Stream size : 24.7 KiB (0%)
Language : English
Default : No
Forced : No
Screenshots

BBC The Sky at Night - Cassini: The Gamechanger (2017)

BBC The Sky at Night - Cassini: The Gamechanger (2017)

BBC The Sky at Night - Cassini: The Gamechanger (2017)

Welcome to my blog - daily update!

BBC The Sky at Night - Cassini: The Gamechanger (2017)