ABC - Catalyst: Black Hole Hunters (2019)

Posted By: notbanned
1080p (FullHD) / HDTV
ABC - Catalyst: Black Hole Hunters (2019)

ABC - Catalyst: Black Hole Hunters (2019)
HDTV | 1920x1080 | .MP4/AVC @ 3097 Kbps | 57 min 19 s | 1.34 GiB
Audio: English MP2 256 kbps, 2 channels | Subs: English
Genre: Documentary

Professor Tamara Davis meets the scientists on a quest to hunt down black holes. With humble beginnings in outback Australia, their journey has brought us to the cusp of an unprecedented milestone in human achievement – the very first picture of a black hole. What it might reveal could overturn the laws of physics.

General
Unique ID : 49139905447443294951286831292135718065 (0x24F80064B32E0196B91EC953D1733CB1)
Complete name : Catalyst.Black.Hole.Hunters.1080p.mkv
Format : Matroska
Format version : Version 4 / Version 2
File size : 1.34 GiB
Duration : 57 min 19 s
Overall bit rate : 3 356 kb/s

Video
ID : 1
Format : AVC
Format/Info : Advanced Video Codec
Format profile : High@L4
Format settings, CABAC : Yes
Format settings, ReFrames : 3 frames
Format settings, GOP : M=3, N=24
Codec ID : V_MPEG4/ISO/AVC
Duration : 57 min 19 s
Bit rate : 3 097 kb/s
Width : 1 920 pixels
Height : 1 080 pixels
Display aspect ratio : 16:9
Frame rate mode : Constant
Frame rate : 25.000 FPS
Color space : YUV
Chroma subsampling : 4:2:0
Bit depth : 8 bits
Scan type : MBAFF
Scan type, store method : Interleaved fields
Scan order : Top Field First
Bits/(Pixel*Frame) : 0.060
Stream size : 1.24 GiB (92%)
Default : Yes
Forced : No

Audio
ID : 2
Format : MPEG Audio
Format version : Version 1
Format profile : Layer 2
Codec ID : A_MPEG/L2
Codec ID/Hint : MP2
Duration : 57 min 18 s
Bit rate mode : Constant
Bit rate : 256 kb/s
Channel(s) : 2 channels
Sampling rate : 48.0 kHz
Frame rate : 41.667 FPS (1152 spf)
Compression mode : Lossy
Stream size : 105 MiB (8%)
Language : English
Default : Yes
Forced : No

Text
ID : 3
Format : UTF-8
Codec ID : S_TEXT/UTF8
Codec ID/Info : UTF-8 Plain Text
Duration : 57 min 9 s
Bit rate : 101 b/s
Count of elements : 953
Stream size : 42.5 KiB (0%)
Language : English
Default : No
Forced : No


Screenshots:

ABC - Catalyst: Black Hole Hunters (2019)

ABC - Catalyst: Black Hole Hunters (2019)

ABC - Catalyst: Black Hole Hunters (2019)

ABC - Catalyst: Black Hole Hunters (2019)