Tags
Language
Tags

ABC - Catalyst: How Food Works (2020)

Posted By: notbanned
1080p (FullHD) / HDTV
ABC - Catalyst: How Food Works (2020)

ABC - Catalyst: How Food Works (2020)
HDTV | 1920x1080 | .MKV/AVC @ 3131 Kbps | 2x~57min | 2.69 GiB
Audio: English MP2 256 kbps, 2 channels | Subs: English
Genre: Documentary

How Food Works - Part 1
Paul learns that the nation's most popular fruit, the Cavendish banana, is under threat of extinction, but discovers that a new disease resistant variety is being cultivated in a field in Far North Queensland. Clare finds out how the traditional craft of fruit preservation is supersized in the production of canned baked beans, and Noby delves into the science of cooking the perfect medium rare steak. Paul also uncovers how the power of gluten is harnessed in slow fermentation sourdough bread - and gets to taste a very special bread made from native Australian grasses.
How Food Works - Part 2
In this episode, Paul explores the science behind cryogenic freezing and how it’s being used to ensure frozen fish tastes almost as good as fresh. In a gelato factory, Clare gets the scoop on why humans are hard-wired to desire junk food. In Tasmania, Noby puts sparking wine under the microscope, and offers up his tastebuds to understand the chemistry of different hot and spicy foods. And Paul explores whether Australian native crops could become the supermarket produce of the future.

General
Unique ID : 39908183444237545815411912582635766719 (0x1E06095B7B1302CB9E74577CC580C3BF)
Complete name : Catalyst.How.Food.Works.Part.1.1080p.mkv
Format : Matroska
Format version : Version 4 / Version 2
File size : 1.37 GiB
Duration : 57 min 40 s
Overall bit rate : 3 389 kb/s

Video
ID : 1
Format : AVC
Format/Info : Advanced Video Codec
Format profile : High@L4
Format settings, CABAC : Yes
Format settings, ReFrames : 4 frames
Codec ID : V_MPEG4/ISO/AVC
Duration : 57 min 39 s
Bit rate : 3 131 kb/s
Width : 1 920 pixels
Height : 1 080 pixels
Display aspect ratio : 16:9
Frame rate mode : Constant
Frame rate : 25.000 FPS
Standard : Component
Color space : YUV
Chroma subsampling : 4:2:0
Bit depth : 8 bits
Scan type : MBAFF
Bits/(Pixel*Frame) : 0.060
Stream size : 1.26 GiB (92%)
Default : Yes
Forced : No
Color range : Limited

Audio
ID : 2
Format : MPEG Audio
Format version : Version 1
Format profile : Layer 2
Codec ID : A_MPEG/L2
Codec ID/Hint : MP2
Duration : 57 min 40 s
Bit rate mode : Constant
Bit rate : 256 kb/s
Channel(s) : 2 channels
Sampling rate : 48.0 kHz
Frame rate : 41.667 FPS (1152 spf)
Compression mode : Lossy
Stream size : 106 MiB (8%)
Language : English
Default : Yes
Forced : No

Text
ID : 3
Format : UTF-8
Codec ID : S_TEXT/UTF8
Codec ID/Info : UTF-8 Plain Text
Duration : 57 min 16 s
Bit rate : 102 b/s
Count of elements : 1042
Stream size : 43.1 KiB (0%)
Language : English
Default : No
Forced : No


Screenshots:

ABC - Catalyst: How Food Works (2020)

ABC - Catalyst: How Food Works (2020)

ABC - Catalyst: How Food Works (2020)

ABC - Catalyst: How Food Works (2020)