Tags
Language
Tags
February 2023
Su Mo Tu We Th Fr Sa
29 30 31 1 2 3 4
5 6 7 8 9 10 11
12 13 14 15 16 17 18
19 20 21 22 23 24 25
26 27 28 1 2 3 4

Channel 4 - Escape to Costa Rica (2017)

Posted By: notbanned
Channel 4 - Escape to Costa Rica (2017)

Channel 4 - Escape to Costa Rica (2017)
HDTV | 1280x720 | .MKV/AVC @ 3909 Kbps | 3x~46min | 3.57 GiB
Audio: English AAC 136 kbps, 2 channels | Subs: English
Genre: Documentary

Science writer and explorer Gaia Vince goes to Costa Rica to find out how this remarkable little republic has become 'the happiest, most sustainable country in the world'.
Part 1
Gaia helps capture a rogue crocodile before travelling to Monteverde Cloud Forest and scaling a giant tree with scientists who preserve life forms. Then she meets President Luis Guillermo Solis.

Part 2
Gaia takes a dip in a hot spring as she finds out how Costa Ricans have harnessed the power of active volcanoes. On the Pacific coast she helps build artificial reefs from unlikely recycled materials.

Part 3
Gaia goes horse riding with a 99-year-old cowboy, takes a canoe trip to meet the indigenous Bribri and witnesses thousands of turtles arriving on a remote beach to lay their eggs.


General
Unique ID : 238863956617215836577426532635038441239 (0xB3B38650AAEC6C899CFE0AFD9E77DF17)
Complete name : Ch4.Escape.to.Costa.Rica.1of3.720p.mkv
Format : Matroska
Format version : Version 4 / Version 2
File size : 1.33 GiB
Duration : 46 min 56 s
Overall bit rate : 4 048 kb/s

Video
ID : 1
Format : AVC
Format/Info : Advanced Video Codec
Format profile : High@L3.1
Format settings, CABAC : Yes
Format settings, ReFrames : 4 frames
Codec ID : V_MPEG4/ISO/AVC
Duration : 46 min 56 s
Bit rate : 3 909 kb/s
Width : 1 280 pixels
Height : 720 pixels
Display aspect ratio : 16:9
Frame rate mode : Constant
Frame rate : 25.000 FPS
Color space : YUV
Chroma subsampling : 4:2:0
Bit depth : 8 bits
Scan type : Progressive
Bits/(Pixel*Frame) : 0.170
Stream size : 1.28 GiB (97%)
Encoding settings : cabac=1 / ref=4 / deblock=1:0:0 / analyse=0x3:0x113 / me=umh / subme=9 / psy=1 / psy_rd=1.00:0.00 / mixed_ref=1 / me_range=24 / chroma_me=1 / trellis=1 / 8x8dct=1 / cqm=0 / deadzone=21,11 / fast_pskip=0 / chroma_qp_offset=-2 / threads=3 / lookahead_threads=1 / sliced_threads=0 / nr=0 / decimate=1 / interlaced=0 / bluray_compat=0 / constrained_intra=0 / bframes=5 / b_pyramid=2 / b_adapt=2 / b_bias=0 / direct=1 / weightb=1 / open_gop=0 / weightp=2 / keyint=250 / keyint_min=25 / scenecut=40 / intra_refresh=0 / rc_lookahead=40 / rc=crf / mbtree=1 / crf=20.0 / qcomp=0.60 / qpmin=0 / qpmax=69 / qpstep=4 / ip_ratio=1.40 / aq=1:1.00
Language : English
Default : Yes
Forced : No

Audio
ID : 2
Format : AAC
Format/Info : Advanced Audio Codec
Format profile : LC
Codec ID : A_AAC
Duration : 46 min 56 s
Bit rate : 136 kb/s
Channel(s) : 2 channels
Channel positions : Front: L R
Sampling rate : 48.0 kHz
Frame rate : 46.875 FPS (1024 spf)
Compression mode : Lossy
Delay relative to video : 9 ms
Stream size : 45.8 MiB (3%)
Language : English
Default : Yes
Forced : No

Text
ID : 3
Format : UTF-8
Codec ID : S_TEXT/UTF8
Codec ID/Info : UTF-8 Plain Text
Duration : 46 min 31 s
Bit rate : 83 b/s
Count of elements : 691
Stream size : 28.6 KiB (0%)
Language : English
Default : No
Forced : No


Screenshots:

Channel 4 - Escape to Costa Rica (2017)

Channel 4 - Escape to Costa Rica (2017)

Channel 4 - Escape to Costa Rica (2017)

Channel 4 - Escape to Costa Rica (2017)