Channel 4 - Inside Alton Towers (2018)

Posted By: notbanned
720p (HD) / HDTV
Channel 4 - Inside Alton Towers (2018)

Channel 4 - Inside Alton Towers (2018)
HDTV | 1280x720 | .MKV/AVC @ 2458 Kbps | 46 min 16 s | 857 MiB
Audio: English AAC 132 kbps, 2 channels | Subs: English
Genre: Documentary

For nearly 40 years, Alton Towers has attracted visitors to some of Britain's most thrilling roller coasters. But in June 2015 something went very wrong. Two carriages collided on one of the park's most popular rides, injuring 16 people, five of them seriously. This one-off documentary goes behind the scenes as the UK's biggest theme park attempts to win back visitors with the launch of their multi-million pound new roller coaster, Wicker Man - the first new ride at the park since The Smiler crash. The film meets the roller-coaster junkies keen to try the new ride; and with exclusive access to the theme park, follows the team at Alton Towers as they battle with the challenge of building a wooden structure that appears to burst into flames. Can the theme park sell the new ride to the public, a sceptical media, and get Wicker Man ready for its big launch?

General
Unique ID : 118172670182292353086765132301194379217 (0x58E73A79287F7F49621C5B7C75163FD1)
Complete name : Ch4.Inside.Alton.Towers.720p.mkv
Format : Matroska
Format version : Version 4 / Version 2
File size : 857 MiB
Duration : 46 min 16 s
Overall bit rate : 2 591 kb/s

Video
ID : 1
Format : AVC
Format/Info : Advanced Video Codec
Format profile : High@L3.1
Format settings, CABAC : Yes
Format settings, ReFrames : 4 frames
Codec ID : V_MPEG4/ISO/AVC
Duration : 46 min 16 s
Bit rate : 2 458 kb/s
Width : 1 280 pixels
Height : 720 pixels
Display aspect ratio : 16:9
Frame rate mode : Constant
Frame rate : 25.000 FPS
Color space : YUV
Chroma subsampling : 4:2:0
Bit depth : 8 bits
Scan type : Progressive
Bits/(Pixel*Frame) : 0.107
Stream size : 813 MiB (95%)
Encoding settings : cabac=1 / ref=4 / deblock=1:0:0 / analyse=0x3:0x113 / me=umh / subme=9 / psy=1 / psy_rd=1.00:0.00 / mixed_ref=1 / me_range=24 / chroma_me=1 / trellis=1 / 8x8dct=1 / cqm=0 / deadzone=21,11 / fast_pskip=0 / chroma_qp_offset=-2 / threads=18 / lookahead_threads=2 / sliced_threads=0 / nr=0 / decimate=1 / interlaced=0 / bluray_compat=0 / constrained_intra=0 / bframes=6 / b_pyramid=2 / b_adapt=2 / b_bias=0 / direct=1 / weightb=1 / open_gop=0 / weightp=2 / keyint=250 / keyint_min=25 / scenecut=40 / intra_refresh=0 / rc_lookahead=40 / rc=crf / mbtree=1 / crf=20.0 / qcomp=0.60 / qpmin=0 / qpmax=69 / qpstep=4 / ip_ratio=1.40 / aq=1:1.00
Language : English
Default : Yes
Forced : No
Color range : Limited
Color primaries : BT.709
Transfer characteristics : BT.709
Matrix coefficients : BT.709

Audio
ID : 2
Format : AAC
Format/Info : Advanced Audio Codec
Format profile : LC
Codec ID : A_AAC
Duration : 46 min 15 s
Bit rate : 132 kb/s
Channel(s) : 2 channels
Channel positions : Front: L R
Sampling rate : 48.0 kHz
Frame rate : 46.875 FPS (1024 spf)
Compression mode : Lossy
Delay relative to video : 9 ms
Stream size : 43.1 MiB (5%)
Language : English
Default : Yes
Forced : No

Text
ID : 3
Format : UTF-8
Codec ID : S_TEXT/UTF8
Codec ID/Info : UTF-8 Plain Text
Duration : 45 min 46 s
Bit rate : 102 b/s
Count of elements : 769
Stream size : 34.2 KiB (0%)
Language : English
Default : No


Screenshots:

Channel 4 - Inside Alton Towers (2018)

Channel 4 - Inside Alton Towers (2018)

Channel 4 - Inside Alton Towers (2018)

Channel 4 - Inside Alton Towers (2018)