Channel 4 - Time Team: Guide to Burial (2012)

Posted By: notbanned
Channel 4 - Time Team: Guide to Burial (2012)

Channel 4 - Time Team: Guide to Burial (2012)
HDTV | 1280x720 | .MKV/AVC @ 2262 Kbps | 46 min 51 s | 802 MiB
Audio: English AAC 128 kbps, 2 channels | Subs: English
Genre: Documentary

Tony Robinson investigates how burial customs have changed and evolved over thousands of years of British history.


General
Unique ID : 239508428622452519192550219684803894478 (0xB42FA53CFA8D6193B08C6BBE3289DCCE)
Complete name : Ch4.Time.Team.2012.Guide.to.Burial.720.mkv
Format : Matroska
Format version : Version 4 / Version 2
File size : 802 MiB
Duration : 46 min 51 s
Overall bit rate : 2 392 kb/s

Video
ID : 1
Format : AVC
Format/Info : Advanced Video Codec
Format profile : High@L3.1
Format settings, CABAC : Yes
Format settings, ReFrames : 4 frames
Codec ID : V_MPEG4/ISO/AVC
Duration : 46 min 51 s
Bit rate : 2 262 kb/s
Width : 1 280 pixels
Height : 720 pixels
Display aspect ratio : 16:9
Frame rate mode : Constant
Frame rate : 25.000 FPS
Color space : YUV
Chroma subsampling : 4:2:0
Bit depth : 8 bits
Scan type : Progressive
Bits/(Pixel*Frame) : 0.098
Stream size : 758 MiB (95%)
Writing library : x264 core 150 r2833 MVGroup
Encoding settings : cabac=1 / ref=4 / deblock=1:0:0 / analyse=0x3:0x113 / me=umh / subme=9 / psy=1 / psy_rd=1.00:0.00 / mixed_ref=1 / me_range=24 / chroma_me=1 / trellis=1 / 8x8dct=1 / cqm=0 / deadzone=21,11 / fast_pskip=0 / chroma_qp_offset=-2 / threads=3 / lookahead_threads=1 / sliced_threads=0 / nr=0 / decimate=1 / interlaced=0 / bluray_compat=0 / constrained_intra=0 / bframes=5 / b_pyramid=2 / b_adapt=2 / b_bias=0 / direct=1 / weightb=1 / open_gop=0 / weightp=2 / keyint=250 / keyint_min=25 / scenecut=40 / intra_refresh=0 / rc_lookahead=40 / rc=crf / mbtree=1 / crf=20.0 / qcomp=0.60 / qpmin=0 / qpmax=69 / qpstep=4 / ip_ratio=1.40 / aq=1:1.00
Language : English
Default : Yes
Forced : No

Audio
ID : 2
Format : AAC
Format/Info : Advanced Audio Codec
Format profile : LC
Codec ID : A_AAC
Duration : 46 min 51 s
Bit rate : 128 kb/s
Channel(s) : 2 channels
Channel positions : Front: L R
Sampling rate : 48.0 kHz
Frame rate : 46.875 FPS (1024 spf)
Compression mode : Lossy
Delay relative to video : 9 ms
Stream size : 42.9 MiB (5%)
Language : English
Default : Yes
Forced : No

Text
ID : 3
Format : UTF-8
Codec ID : S_TEXT/UTF8
Codec ID/Info : UTF-8 Plain Text
Duration : 46 min 10 s
Bit rate : 102 b/s
Count of elements : 853
Stream size : 34.8 KiB (0%)
Language : English
Default : No
Forced : No


Screenshots:

Channel 4 - Time Team: Guide to Burial (2012)

Channel 4 - Time Team: Guide to Burial (2012)

Channel 4 - Time Team: Guide to Burial (2012)

Channel 4 - Time Team: Guide to Burial (2012)