Tags
Language
Tags

CH4 Unreported World - North Korea's Greatest Show (2018)

Posted By: notbanned
720p (HD) / HDTV
CH4 Unreported World - North Korea's Greatest Show (2018)

CH4 Unreported World - North Korea's Greatest Show (2018)
HDTV | 1280x720 | .MKV/AVC @ 3011 Kbps | 24 min 23 s | 537 MiB
Audio: English AAC 64 kbps, 2 channels | Subs: English
Genre: Documentary

Marcel Theroux is granted rare access to North Korea as the country contemplates reunification. As he explores the country with director Karim Shah and his official minder Mr Ri, the highlight of his trip is the first Mass Games to be held in five years, with 100,000 citizens singing their hearts out for the fatherland in celebration of the country's 70th anniversary. They also tour Pyongyang's stunning metro system, and visit a trade fair and a collective farm, and Theroux gets an officially sanctioned haircut, in a country where the wrong style can get you into trouble with the police. Travelling outside the city, his guides show off the country's first ski resort, and the team witness a changing country with an emerging soft capitalism.

General
Unique ID : 53745576716212697973182336129134954643 (0x286F0584CCB48FA80691DEE8DB830893)
Complete name : Ch4.Unreported.World.2018.North.Koreas.Greatest.Show.720p.mkv
Format : Matroska
Format version : Version 4 / Version 2
File size : 537 MiB
Duration : 24 min 23 s
Overall bit rate : 3 077 kb/s

Video
ID : 1
Format : AVC
Format/Info : Advanced Video Codec
Format profile : High@L3.1
Format settings, CABAC : Yes
Format settings, ReFrames : 4 frames
Codec ID : V_MPEG4/ISO/AVC
Duration : 24 min 23 s
Bit rate : 3 011 kb/s
Width : 1 280 pixels
Height : 720 pixels
Display aspect ratio : 16:9
Frame rate mode : Constant
Frame rate : 25.000 FPS
Color space : YUV
Chroma subsampling : 4:2:0
Bit depth : 8 bits
Scan type : Progressive
Bits/(Pixel*Frame) : 0.131
Stream size : 525 MiB (98%)
Writing library : x264 core 157 r2935 545de2f
Encoding settings : cabac=1 / ref=4 / deblock=1:0:0 / analyse=0x3:0x113 / me=umh / subme=9 / psy=1 / psy_rd=1.00:0.00 / mixed_ref=1 / me_range=24 / chroma_me=1 / trellis=1 / 8x8dct=1 / cqm=0 / deadzone=21,11 / fast_pskip=0 / chroma_qp_offset=-2 / threads=18 / lookahead_threads=2 / sliced_threads=0 / nr=0 / decimate=1 / interlaced=0 / bluray_compat=0 / constrained_intra=0 / bframes=6 / b_pyramid=2 / b_adapt=2 / b_bias=0 / direct=1 / weightb=1 / open_gop=0 / weightp=2 / keyint=250 / keyint_min=25 / scenecut=40 / intra_refresh=0 / rc_lookahead=40 / rc=crf / mbtree=1 / crf=20.0 / qcomp=0.60 / qpmin=0 / qpmax=69 / qpstep=4 / ip_ratio=1.40 / aq=1:1.00
Language : English
Default : Yes
Forced : No
Color range : Limited
Color primaries : BT.709
Transfer characteristics : BT.709
Matrix coefficients : BT.709

Audio
ID : 2
Format : AAC
Format/Info : Advanced Audio Codec
Format profile : HE-AAC / LC
Codec ID : A_AAC
Duration : 24 min 22 s
Bit rate : 64.0 kb/s
Channel(s) : 2 channels
Channel positions : Front: L R
Sampling rate : 48.0 kHz / 24.0 kHz
Frame rate : 23.438 FPS (1024 spf)
Compression mode : Lossy
Delay relative to video : 43 ms
Stream size : 11.2 MiB (2%)
Language : English
Default : Yes
Forced : No

Text
ID : 3
Format : UTF-8
Codec ID : S_TEXT/UTF8
Codec ID/Info : UTF-8 Plain Text
Duration : 24 min 6 s
Bit rate : 78 b/s
Count of elements : 313
Stream size : 13.8 KiB (0%)
Language : English
Default : No
Forced : No


Screenshots:

CH4 Unreported World - North Korea's Greatest Show (2018)

CH4 Unreported World - North Korea's Greatest Show (2018)

CH4 Unreported World - North Korea's Greatest Show (2018)

CH4 Unreported World - North Korea's Greatest Show (2018)