Tags
Language
Tags

Channel 5 - The Great Plague (2020)

Posted By: notbanned
1080p (FullHD) / HDTV
Channel 5 - The Great Plague (2020)

Channel 5 - The Great Plague (2020)
HDTV | 1920x1080 | .MKV/AVC @ 1855 Kbps | 2 h 14 min | 1.86 GiB
Audio: English AAC 130 kbps, 2 channels | Subs: English
Genre: Documentary

Xand van Tulleken, Raksha Dave and John Sergeant discover the parallels of the Great Plague of 1665 with the Covid-19 pandemic.

Ch1. Outbreak
The epidemic is traced back to its source in the parish of St Giles in the Fields, now at the heart of London's theatre district. The programme also examines the symptoms of the disease and uncovers new research into the plague bacteria that could overthrow accepted ideas about how the infection was spread.

Ch2. Decimation
Xand heads to St Barts hospital to look back at historical records which show that nursing staff stayed behind and risked their lives to help the sick. Elsewhere, John investigates why infection rates were so different between the rich and poor, examining clothes typical for each group in the 17th century.

Ch3. Aftermath
Xand visits Samuel Pepys' parish church and discovers the sad tale of the Poole family, who within 11 days lost all five of their children. He also heads to Eyam in Derbyshire, revealing the heroic story of self-sacrifice that saw all 700 villagers lock themselves in to try to stop the disease spreading to surrounding areas. Raksha Dave trials 17th-century disinfection methods and reveals a surprising substitute that can be just effective as modern antibacterial cleaners.

General
Unique ID : 260030345704083313810353204819004590627 (0xC3A005DE5A572F13E5F651EBA0C18A23)
Complete name : Ch5.The.Great.Plague.1080p.mkv
Format : Matroska
Format version : Version 4 / Version 2
File size : 1.86 GiB
Duration : 2 h 14 min
Overall bit rate : 1 987 kb/s

Video
ID : 1
Format : HEVC
Format/Info : High Efficiency Video Coding
Format profile : Main@L4@Main
Codec ID : V_MPEGH/ISO/HEVC
Duration : 2 h 14 min
Bit rate : 1 855 kb/s
Width : 1 920 pixels
Height : 1 080 pixels
Display aspect ratio : 16:9
Frame rate mode : Constant
Frame rate : 25.000 FPS
Color space : YUV
Chroma subsampling : 4:2:0
Bit depth : 8 bits
Bits/(Pixel*Frame) : 0.036
Stream size : 1.74 GiB (93%)

Encoding settings : cpuid=1111039 / frame-threads=3 / numa-pools=12 / wpp / no-pmode / no-pme / no-psnr / no-ssim / log-level=2 / input-csp=1 / input-res=1920x1080 / interlace=0 / total-frames=66850 / level-idc=0 / high-tier=1 / uhd-bd=0 / ref=3 / no-allow-non-conformance / no-repeat-headers / annexb / no-aud / no-hrd / info / hash=0 / no-temporal-layers / no-open-gop / min-keyint=25 / keyint=250 / gop-lookahead=12 / bframes=6 / b-adapt=2 / b-pyramid / bframe-bias=0 / rc-lookahead=20 / lookahead-slices=6 / scenecut=40 / hist-scenecut=0 / radl=0 / no-splice / no-intra-refresh / ctu=64 / min-cu-size=8 / no-rect / no-amp / max-tu-size=32 / tu-inter-depth=1 / tu-intra-depth=1 / limit-tu=0 / rdoq-level=0 / dynamic-rd=0.00 / no-ssim-rd / signhide / no-tskip / nr-intra=0 / nr-inter=0 / no-constrained-intra / strong-intra-smoothing / max-merge=3 / limit-refs=1 / no-limit-modes / me=2 / subme=2 / merange=48 / temporal-mvp / no-frame-dup / hme / Level / merange / L0,L1,L2=16,32,48 / weightp / weightb / no-analyze-src-pics / deblock=0:0 / sao / no-sao-non-deblock / rd=3 / selective-sao=4 / early-skip / rskip / no-fast-intra / no-tskip-fast / no-cu-lossless / b-intra / no-splitrd-skip / rdpenalty=0 / psy-rd=2.00 / psy-rdoq=0.00 / no-rd-refine / no-lossless / cbqpoffs=0 / crqpoffs=0 / rc=crf / crf=21.0 / qcomp=0.60 / qpstep=4 / stats-write=0 / stats-read=0 / ipratio=1.40 / pbratio=1.30 / aq-mode=4 / aq-strength=1.00 / cutree / zone-count=0 / no-strict-cbr / qg-size=32 / no-rc-grain / qpmax=69 / qpmin=0 / no-const-vbv / sar=1 / overscan=0 / videoformat=5 / range=0 / colorprim=1 / transfer=1 / colormatrix=1 / chromaloc=0 / display-window=0 / cll=0,0 / min-luma=0 / max-luma=255 / log2-max-poc-lsb=8 / vui-timing-info / vui-hrd-info / slices=1 / no-opt-qp-pps / no-opt-ref-list-length-pps / no-multi-pass-opt-rps / scenecut-bias=0.05 / hist-threshold=0.03 / no-opt-cu-delta-qp / no-aq-motion / no-hdr10 / no-hdr10-opt / no-dhdr10-opt / no-idr-recovery-sei / analysis-reuse-level=0 / analysis-save-reuse-level=0 / analysis-load-reuse-level=0 / scale-factor=0 / refine-intra=0 / refine-inter=0 / refine-mv=1 / refine-ctu-distortion=0 / no-limit-sao / ctu-info=0 / no-lowpass-dct / refine-analysis-type=0 / copy-pic=1 / max-ausize-factor=1.0 / no-dynamic-refine / no-single-sei / no-hevc-aq / no-svt / no-field / qp-adaptation-range=1.00 / no-scenecut-aware-qpconformance-window-offsets / right=0 / bottom=0 / decoder-max-rate=0 / no-vbv-live-multi-pass
Language : English
Default : Yes
Forced : No
Color range : Limited
Color primaries : BT.709
Transfer characteristics : BT.709
Matrix coefficients : BT.709

Audio
ID : 2
Format : AAC
Format/Info : Advanced Audio Codec
Format profile : LC
Codec ID : A_AAC
Duration : 2 h 14 min
Bit rate : 130 kb/s
Channel(s) : 2 channels
Channel positions : Front: L R
Sampling rate : 48.0 kHz
Frame rate : 46.875 FPS (1024 spf)
Compression mode : Lossy
Delay relative to video : 20 ms
Stream size : 124 MiB (7%)
Language : English
Default : Yes
Forced : No

Text
ID : 3
Format : UTF-8
Codec ID : S_TEXT/UTF8
Codec ID/Info : UTF-8 Plain Text
Duration : 2 h 13 min
Bit rate : 101 b/s
Count of elements : 2184
Stream size : 99.1 KiB (0%)
Language : English
Default : No
Forced : No

Menu
00:00:00.000 : en:Outbreak
00:44:34.000 : en:Decimation
01:29:21.000 : en:Aftermath


Screenshots:

Channel 5 - The Great Plague (2020)

Channel 5 - The Great Plague (2020)

Channel 5 - The Great Plague (2020)