Tags
Language
Tags

Charged: The Eduardo Garcia Story (2017)

Posted By: Without
1080p (FullHD) / WEB-DL IMDb
Charged: The Eduardo Garcia Story (2017)

Charged: The Eduardo Garcia Story (2017)
WEB-DL 720p | MKV | 1280x720 | AVC@3205 kb/s | English AC3@640 kb/s
Subs: English | 6 channels | 1 h 26 min | 2.32 GB
WEB-DL 1080p | MKV | 1920x1080 | AVC@9001 kb/s | English AC3@640 kb/s
Subs: English | 6 channels | 1 h 26 min | 5.82 GB
Genre: Documentary, Action, Adventure

Charged with 2400 volts of electricity, Eduardo Garcia lost an arm, ribs, muscle mass and nearly his life, but more important than what he lost is what he found.

IMDB - 6 wins & 1 nomination.


General
Charged.The.Eduardo.Garcia.Story.2017.720p.AMZN.WEB-DL.DDP5.1.H.264-NTb.mkv
Format : Matroska
Format version : Version 4 / Version 2
File size : 2.32 GiB
Duration : 1 h 26 min
Overall bit rate mode : Variable
Overall bit rate : 3 847 kb/s
Encoded date : UTC 2018-05-09 13:29:13
Writing application : mkvmerge v23.0.0 ('The Bride Said No') 64-bit
Writing library : libebml v1.3.6 + libmatroska v1.4.9

Video
ID : 1
Format : AVC
Format/Info : Advanced Video Codec
Format profile : High@L3.1
Format settings : CABAC / 5 Ref Frames
Format settings, CABAC : Yes
Format settings, RefFrames : 5 frames
Codec ID : V_MPEG4/ISO/AVC
Duration : 1 h 26 min
Bit rate mode : Variable
Bit rate : 3 205 kb/s
Maximum bit rate : 4 500 kb/s
Width : 1 280 pixels
Height : 720 pixels
Display aspect ratio : 16:9
Frame rate mode : Constant
Frame rate : 23.976 (24000/1001) FPS
Color space : YUV
Chroma subsampling : 4:2:0
Bit depth : 8 bits
Scan type : Progressive
Bits/(Pixel*Frame) : 0.145
Stream size : 1.93 GiB (83%)
Default : Yes
Forced : No
Color range : Limited
Color primaries : BT.709
Transfer characteristics : BT.709
Matrix coefficients : BT.709

Audio
ID : 2
Format : E-AC-3
Format/Info : Enhanced Audio Coding 3
Codec ID : A_EAC3
Duration : 1 h 26 min
Bit rate mode : Constant
Bit rate : 640 kb/s
Channel(s) : 6 channels
Channel positions : Front: L C R, Side: L R, LFE
Sampling rate : 48.0 kHz
Frame rate : 187.500 FPS (256 SPF)
Compression mode : Lossy
Stream size : 396 MiB (17%)
Language : English
Service kind : Complete Main
Default : Yes
Forced : No

Text #1
ID : 3
Format : UTF-8
Codec ID : S_TEXT/UTF8
Codec ID/Info : UTF-8 Plain Text
Duration : 1 h 25 min
Bit rate : 65 b/s
Count of elements : 1337
Stream size : 41.0 KiB (0%)
Language : English
Default : No
Forced : No

Text #2
ID : 4
Format : UTF-8
Codec ID : S_TEXT/UTF8
Codec ID/Info : UTF-8 Plain Text
Duration : 1 h 25 min
Bit rate : 69 b/s
Count of elements : 1388
Stream size : 43.2 KiB (0%)
Title : SDH
Language : English
Default : No
Forced : No

Menu
00:00:00.000 : en:Studio Logo
00:00:17.000 : en:Scene 1
00:05:07.000 : en:Title Sequence
00:05:17.000 : en:Scene 1
00:12:21.000 : en:Scene 1
00:27:15.000 : en:Scene 1
00:34:35.000 : en:Scene 1
00:42:01.000 : en:Scene 1
00:53:17.000 : en:Scene 1
01:00:18.000 : en:Scene 1
01:09:22.000 : en:Scene 1
01:22:54.000 : en:End Credits

General
Charged.The.Eduardo.Garcia.Story.2017.1080p.AMZN.WEB-DL.DDP5.1.H.264-NTb.mkv
Format : Matroska
Format version : Version 4 / Version 2
File size : 5.82 GiB
Duration : 1 h 26 min
Overall bit rate mode : Variable
Overall bit rate : 9 643 kb/s
Encoded date : UTC 2018-05-09 04:16:23
Writing application : mkvmerge v23.0.0 ('The Bride Said No') 64-bit
Writing library : libebml v1.3.6 + libmatroska v1.4.9

Video
ID : 1
Format : AVC
Format/Info : Advanced Video Codec
Format profile : High@L4
Format settings : CABAC / 4 Ref Frames
Format settings, CABAC : Yes
Format settings, RefFrames : 4 frames
Codec ID : V_MPEG4/ISO/AVC
Duration : 1 h 26 min
Bit rate mode : Variable
Bit rate : 9 001 kb/s
Maximum bit rate : 15.0 Mb/s
Width : 1 920 pixels
Height : 1 080 pixels
Display aspect ratio : 16:9
Frame rate mode : Constant
Frame rate : 23.976 (24000/1001) FPS
Color space : YUV
Chroma subsampling : 4:2:0
Bit depth : 8 bits
Scan type : Progressive
Bits/(Pixel*Frame) : 0.181
Stream size : 5.43 GiB (93%)
Default : Yes
Forced : No
Color range : Limited
Color primaries : BT.709
Transfer characteristics : BT.709
Matrix coefficients : BT.709

Audio
ID : 2
Format : E-AC-3
Format/Info : Enhanced Audio Coding 3
Codec ID : A_EAC3
Duration : 1 h 26 min
Bit rate mode : Constant
Bit rate : 640 kb/s
Channel(s) : 6 channels
Channel positions : Front: L C R, Side: L R, LFE
Sampling rate : 48.0 kHz
Frame rate : 187.500 FPS (256 SPF)
Compression mode : Lossy
Stream size : 396 MiB (7%)
Language : English
Service kind : Complete Main
Default : Yes
Forced : No

Text #1
ID : 3
Format : UTF-8
Codec ID : S_TEXT/UTF8
Codec ID/Info : UTF-8 Plain Text
Duration : 1 h 25 min
Bit rate : 65 b/s
Count of elements : 1337
Stream size : 41.0 KiB (0%)
Language : English
Default : No
Forced : No

Text #2
ID : 4
Format : UTF-8
Codec ID : S_TEXT/UTF8
Codec ID/Info : UTF-8 Plain Text
Duration : 1 h 25 min
Bit rate : 69 b/s
Count of elements : 1388
Stream size : 43.2 KiB (0%)
Title : SDH
Language : English
Default : No
Forced : No

Menu
00:00:00.000 : en:Studio Logo
00:00:17.000 : en:Scene 1
00:05:07.000 : en:Title Sequence
00:05:17.000 : en:Scene 1
00:12:21.000 : en:Scene 1
00:27:15.000 : en:Scene 1
00:34:35.000 : en:Scene 1
00:42:01.000 : en:Scene 1
00:53:17.000 : en:Scene 1
01:00:18.000 : en:Scene 1
01:09:22.000 : en:Scene 1
01:22:54.000 : en:End Credits


WEB-DL 720p Screenshots

Charged: The Eduardo Garcia Story (2017)

Charged: The Eduardo Garcia Story (2017)

Charged: The Eduardo Garcia Story (2017)


WEB-DL 1080p Screenshots

Charged: The Eduardo Garcia Story (2017)

Charged: The Eduardo Garcia Story (2017)

Charged: The Eduardo Garcia Story (2017)


Come Visit My Blog (•‿•)