Tags
Language
Tags

SBS - Charles And Diana: 1983 (2021)

Posted By: notbanned
1080p (FullHD) / HDTV IMDb
SBS - Charles And Diana: 1983 (2021)

SBS - Charles And Diana: 1983 (2021)
HDTV | 1920x1080 | .MKV/AVC @ 4510 Kbps | 47 min 54 s | 1.57 GiB
Audio: English MP2 192 kbps, 2 channels | Subs: English
Genre: Documentary

If a single photograph can say a thousand words, a thousand photographs can tell an incredible story. In 1983 the most famous couple in the world arrived in Alice Springs, Australia for a historic royal tour. Greeted by oceans of cheering fans, packing and lining each and every street. Fans and admirers full of hope, optimism and love for the Prince and Princess

General
Unique ID : 284660954300973726363806169421098502344 (0xD627B4A17480DD67063EE7BC36E7C8C8)
Complete name : Charle.And.Diana.1983.2021.1080p.mkv
Format : Matroska
Format version : Version 4 / Version 2
File size : 1.57 GiB
Duration : 47 min 54 s
Overall bit rate : 4 704 kb/s

Video
ID : 1
Format : AVC
Format/Info : Advanced Video Codec
Format profile : High@L4
Format settings, CABAC : Yes
Format settings, ReFrames : 4 frames
Codec ID : V_MPEG4/ISO/AVC
Duration : 47 min 54 s
Bit rate : 4 510 kb/s
Width : 1 920 pixels
Height : 1 080 pixels
Display aspect ratio : 16:9
Frame rate mode : Constant
Frame rate : 25.000 FPS
Standard : Component
Color space : YUV
Chroma subsampling : 4:2:0
Bit depth : 8 bits
Scan type : MBAFF
Scan type, store method : Interleaved fields
Scan order : Top Field First
Bits/(Pixel*Frame) : 0.087
Stream size : 1.51 GiB (96%)
Default : Yes
Forced : No
Color range : Limited
Color primaries : BT.709
Transfer characteristics : BT.709
Matrix coefficients : BT.709

Audio
ID : 2
Format : MPEG Audio
Format version : Version 1
Format profile : Layer 2
Codec ID : A_MPEG/L2
Codec ID/Hint : MP2
Duration : 47 min 54 s
Bit rate mode : Constant
Bit rate : 192 kb/s
Channel(s) : 2 channels
Sampling rate : 48.0 kHz
Frame rate : 41.667 FPS (1152 spf)
Compression mode : Lossy
Stream size : 65.8 MiB (4%)
Language : English
Default : Yes
Forced : No

Text
ID : 3
Format : UTF-8
Codec ID : S_TEXT/UTF8
Codec ID/Info : UTF-8 Plain Text
Duration : 47 min 9 s
Bit rate : 91 b/s
Count of elements : 757
Stream size : 31.7 KiB (0%)
Language : English
Default : No
Forced : No


Screenshots:

SBS - Charles And Diana: 1983 (2021)

SBS - Charles And Diana: 1983 (2021)

SBS - Charles And Diana: 1983 (2021)

SBS - Charles And Diana: 1983 (2021)