Charlie Chan in the Secret Service / Секретная служба (1944)

Posted By: RSU75
Charlie Chan in the Secret Service / Секретная служба (1944)

Charlie Chan in the Secret Service / Секретная служба (1944)
DVDRip | MKV | AVC 720x480, ~ 1.6 Mbps | 1hr 04mn | 0.9 GB
English: AC3, 2 ch, 192 kbps; Russian: AC3, 2 ch, 192 kbps
Subtitles: English, Spanish, French
Genre: Comedy, Crime, Mystery
IMDB Rating: 6.9/10 (1.215 votes)


Director: Phil Rosen
Writers: George Callahan (original screenplay), Earl Derr Biggers (characters)
Stars: Sidney Toler, Mantan Moreland, Arthur Loft

A scientist working on an important new invention which will protect Allied shipping from U-boat torpedoes has been assigned Secret Service security protection. Amazingly, despite the fact that his laboratory and experiments are located on the upper floor of his Washington mansion, he decides to host a cocktail party for friends on the first floor. Even though several of his guests are foreign nationals with shadowy pasts, he refuses to allow his bodyguards to attend because their presence might offend them. When he is killed by unknown means before joining them, the resultant summary investigation includes Honolulu detective Charlie Chan and children Tommy and Iris, later joined by Birmingham Brown, the chauffeur of one of the guests. When a preliminary autopsy reveals the scientist was electrocuted, Charlie and his associates must decide which of the suspects and red herrings is the guilty party.




General
Unique ID : 177593653494311614963576575140907034437 (0x859B4B241CCAD35092089B615401A745)
Complete name : L:\CharlieChanInTheSecretService.44.Dr\CharlieChanInTheSecretService.44.Dr.mkv
Format : Matroska
Format version : Version 4 / Version 2
File size : 917 MiB
Duration : 1 h 4 min
Overall bit rate : 1 984 kb/s
Movie name : Release RSU75
Encoded date : UTC 2017-10-10 05:22:50
Writing application : mkvmerge v6.6.0 ('The Edge Of The In Between') built on Dec 1 2013 17:55:00
Writing library : libebml v1.3.0 + libmatroska v1.4.1

Video
ID : 1
Format : AVC
Format/Info : Advanced Video Codec
Format profile : High@L3
Format settings, CABAC : Yes
Format settings, ReFrames : 4 frames
Codec ID : V_MPEG4/ISO/AVC
Duration : 1 h 4 min
Bit rate : 1 600 kb/s
Width : 720 pixels
Height : 480 pixels
Display aspect ratio : 4:3
Frame rate mode : Constant
Frame rate : 24.000 FPS
Color space : YUV
Chroma subsampling : 4:2:0
Bit depth : 8 bits
Scan type : Progressive
Bits/(Pixel*Frame) : 0.193
Stream size : 721 MiB (79%)
Writing library : x264 core 144 r2533 c8a773e
Encoding settings : cabac=1 / ref=4 / deblock=1:0:0 / analyse=0x3:0x113 / me=umh / subme=8 / psy=1 / psy_rd=1.00:0.00 / mixed_ref=1 / me_range=24 / chroma_me=1 / trellis=1 / 8x8dct=1 / cqm=0 / deadzone=21,11 / fast_pskip=1 / chroma_qp_offset=-2 / threads=3 / lookahead_threads=1 / sliced_threads=0 / nr=0 / decimate=1 / interlaced=0 / bluray_compat=0 / constrained_intra=0 / bframes=3 / b_pyramid=0 / b_adapt=2 / b_bias=0 / direct=3 / weightb=1 / open_gop=0 / weightp=2 / keyint=250 / keyint_min=25 / scenecut=40 / intra_refresh=0 / rc_lookahead=40 / rc=abr / mbtree=1 / bitrate=1600 / ratetol=1.0 / qcomp=0.60 / qpmin=10 / qpmax=51 / qpstep=4 / ip_ratio=1.41 / aq=1:1.00
Language : English
Default : Yes
Forced : No

Audio #1
ID : 2
Format : AC-3
Format/Info : Audio Coding 3
Format profile : Dolby Digital
Mode extension : CM (complete main)
Format settings, Endianness : Big
Codec ID : A_AC3
Duration : 1 h 4 min
Bit rate mode : Constant
Bit rate : 192 kb/s
Channel(s) : 2 channels
Channel positions : Front: L R
Sampling rate : 48.0 kHz
Frame rate : 31.250 FPS (1536 spf)
Bit depth : 16 bits
Compression mode : Lossy
Delay relative to video : -42 ms
Stream size : 88.7 MiB (10%)
Language : English
Default : Yes
Forced : No

Audio #2
ID : 3
Format : AC-3
Format/Info : Audio Coding 3
Mode extension : CM (complete main)
Format settings, Endianness : Big
Codec ID : A_AC3
Duration : 1 h 4 min
Bit rate mode : Constant
Bit rate : 192 kb/s
Channel(s) : 2 channels
Channel positions : Front: L R
Sampling rate : 48.0 kHz
Frame rate : 31.250 FPS (1536 spf)
Bit depth : 16 bits
Compression mode : Lossy
Delay relative to video : -42 ms
Stream size : 88.7 MiB (10%)
Language : Russian
Default : No
Forced : No

Text #1
ID : 4
Format : VobSub
Muxing mode : zlib
Codec ID : S_VOBSUB
Codec ID/Info : Picture based subtitle format used on DVDs
Language : English
Default : Yes
Forced : No

Text #2
ID : 5
Format : VobSub
Muxing mode : zlib
Codec ID : S_VOBSUB
Codec ID/Info : Picture based subtitle format used on DVDs
Language : French
Default : No
Forced : No

Text #3
ID : 6
Format : VobSub
Muxing mode : zlib
Codec ID : S_VOBSUB
Codec ID/Info : Picture based subtitle format used on DVDs
Language : Spanish
Default : No
Forced : No

Menu
00:00:00.000 : en:Chapter 01
00:05:15.948 : en:Chapter 02
00:08:01.531 : en:Chapter 03
00:14:12.985 : en:Chapter 04
00:19:25.464 : en:Chapter 05
00:22:42.794 : en:Chapter 06
00:24:52.924 : en:Chapter 07
00:29:04.509 : en:Chapter 08
00:35:09.474 : en:Chapter 09
00:37:14.098 : en:Chapter 10
00:39:36.574 : en:Chapter 11
00:42:12.162 : en:Chapter 12
00:44:58.162 : en:Chapter 13
00:49:26.363 : en:Chapter 14
00:55:11.041 : en:Chapter 15
00:59:29.098 : en:Chapter 16




О фильме: Изобретатель Джордж Мэлтон разрабатывает противоторпедную защиту для союзнического флота, его рабочий кабинет находится на втором этаже его виллы и постоянно находится под охраной секретной службы США. Несмотря на свою занятость и засекреченность, он решает собрать на званый обед двенадцать своих друзей, который пройдет на первом этаже и просит охрану не следить за гостями, среди которых есть подданные других стран, дабы не оскорбить присутствующих. Неожиданно выясняется, что гостеприимный хозяин убит, и все его секретные чертежи и документы похищены. За раскрытие этого загадочного дела берется великий и очень профессиональный детектив китайского происхождения Чарли Чен.

Русский перевод: профессиональный (многоголосый закадровый)



Screenshots (click to enlarge to original size):

Charlie Chan in the Secret Service / Секретная служба (1944)

Charlie Chan in the Secret Service / Секретная служба (1944)

Charlie Chan in the Secret Service / Секретная служба (1944)


Charlie Chan in the Secret Service / Секретная служба (1944)




–––––––––––––––––––––––––––––––––––––––-
>>> "DVDRip" <<< OR >>> "Crime" <<<
–––––––––––––––––––––––––––––––––––––––-
>>> Visit Blog RSU75 Here <<<
–––––––––––––––––––––––––––––––––––––––-