China's Forbidden City (2018)

Posted By: notbanned
720p (HD) / HDTV
China's Forbidden City (2018)

China's Forbidden City (2018)
HDTV | 1280x720 | .MKV/AVC @ 3142 Kbps | 2x~46min | 2.20 GiB
Audio: English EAC3 224 kbps, 2 channels | Subs: English
Genre: Documentary

It was the inner sanctum and pulsating heart of the Chinese Empire. Today it is modern China’s greatest tourist attraction: Beijing’s Forbidden City. This program focuses on the magical site and on two major turning points. The first part, “The Center of the World,” transports us to the reign of Emperor Yongle in the 15th century, the most cosmopolitan period of the Ming Dynasty. Having usurped the throne, Yongle had to rely on his court eunuchs to administer the Empire. Though robbed of their manhood, they rose to occupy the highest posts. This fascinating look at the imperial eunuchs is followed by “The Reign of the Concubine,” which showcases Cixi, the fabled Dowager Empress of the late 19th century. A simple concubine, she became the mightiest woman at court, a masterful manipulator of the Forbidden City’s power structures.

1. The Centre of the World
The history of the Forbidden City begins with a bloody coup at the beginning of the 15th century when the ambitious field commander Prince Zhu Di took power. As the Yongle Emperor, he declared Beijing the new capital of China and ordered the construction of a giant palace complex. The building of the architectural symbol of his almightiness, and the perfect reflection of cosmic order, was finished in only a few years. However, Yongle’s destiny was to be intimately tied to the empire’s collapse.

2. The Reign of the Concubine
She was the ruthless “dragon lady” that subjected the last regents of the Dragon Throne to becoming her marionettes. The emperor’s widow Cixi was one of the most powerful women in Chinese history. She came to the Forbidden City as a young concubine in 1850, soon winning the favour of the Chinese emperor and becoming the empire’s most important woman. Cixi lead China’s destiny for almost fifty years, and was yet unable to stop the tides of change that would bring down the great Chinese Empire.

General
Unique ID : 251000809378818178149471843337625323878 (0xBCD4FF5B2A1C8DEFC7E274587B3EC966)
Complete name : China.s.Forbidden.City.S01E01.The.Centre.of.the.World.720p.mkv
Format : Matroska
Format version : Version 4 / Version 2
File size : 1.08 GiB
Duration : 46 min 2 s
Overall bit rate : 3 368 kb/s

Video
ID : 1
Format : AVC
Format/Info : Advanced Video Codec
Format profile : High@L3.1
Format settings, CABAC : Yes
Format settings, ReFrames : 5 frames
Codec ID : V_MPEG4/ISO/AVC
Duration : 46 min 2 s
Bit rate : 3 142 kb/s
Width : 1 280 pixels
Height : 720 pixels
Display aspect ratio : 16:9
Frame rate mode : Constant
Frame rate : 29.970 (30000/1001) FPS
Color space : YUV
Chroma subsampling : 4:2:0
Bit depth : 8 bits
Scan type : Progressive
Bits/(Pixel*Frame) : 0.114
Stream size : 1.01 GiB (93%)
Default : Yes
Forced : No
Color range : Limited
Color primaries : BT.709
Transfer characteristics : BT.709
Matrix coefficients : BT.709

Audio
ID : 2
Format : E-AC-3
Format/Info : Enhanced Audio Coding 3
Format settings, Endianness : Big
Codec ID : A_EAC3
Duration : 46 min 2 s
Bit rate mode : Constant
Bit rate : 224 kb/s
Channel(s) : 2 channels
Channel positions : Front: L R
Sampling rate : 48.0 kHz
Frame rate : 187.500 FPS (256 spf)
Compression mode : Lossy
Stream size : 73.8 MiB (7%)
Title : English
Language : English
Service kind : Complete Main
Default : Yes
Forced : No

Text
ID : 3
Format : UTF-8
Codec ID : S_TEXT/UTF8
Codec ID/Info : UTF-8 Plain Text
Duration : 46 min 0 s
Bit rate : 73 b/s
Count of elements : 973
Stream size : 24.6 KiB (0%)
Title : English [SDH]
Language : English
Default : No
Forced : No


Screenshots:

China's Forbidden City (2018)

China's Forbidden City (2018)

China's Forbidden City (2018)

China's Forbidden City (2018)