Tags
Language
Tags
February 2023
Su Mo Tu We Th Fr Sa
29 30 31 1 2 3 4
5 6 7 8 9 10 11
12 13 14 15 16 17 18
19 20 21 22 23 24 25
26 27 28 1 2 3 4

BBC - Chopin: The Women Behind the Music (2010)

Posted By: Tutorial
BBC - Chopin: The Women Behind the Music (2010)

BBC - Chopin: The Women Behind the Music (2010)
PDTV | 720 x 400 | .AVI/XviD @ 1511 Kbps | 1h 29mn | 1.02 GB
Audio: English AC-3 128 Kbps, 2 channels |Subs: None
Genre: Documentary, Music

Documentary which follows young pianist James Rhodes on a journey to Warsaw, Paris and London to discover the women whose voices had such a powerful influence on the composer Chopin. These included Konstancja, a young soprano and the object of his teenage affections; Delfina, the sexually notorious Polish Parisian emigre countess; fellow composer and opera singer Pauline Viardot; and Swedish opera star Jenny Lind, who so affected Chopin in the final years of his life.
Related Documentaries:
BBC - Mozart in Prague: Rolando Villazon on Don Giovanni (2014)
BBC - The Last Night of the Proms from Around the UK (2017)
BBC - Last Night of the Proms (2017)
BBC - Jean Sibelius (1984)
BBC - Opera Italia (2010)
The Salzburg Festival (2006)
BBC - The Birth of an Opera (2016)
BBC - Pappano's Essential Tosca (2011)
BBC - Pappano's Essential Ring Cycle (2013)
BBC - Chopin: The Women Behind the Music (2010)
BBC - Pavarotti: A Life in Seven Arias (2007)
BBC Proms - CBSO Plays Tchaikovsky (2016)
BBC Proms - Simon Rattle Conducts the Berlin Philharmonic (2016)
BBC Proms - Barenboim Conducts the West-Eastern Divan Orchestra (2016)

General
Complete name : BBC.Chopin.The.Women.Behind.the.Music.avi
Format : AVI
Format/Info : Audio Video Interleave
Format profile : OpenDML
Format settings : rec
File size : 1.02 GiB
Duration : 1 h 29 min
Overall bit rate : 1 645 kb/s
Writing application : AVI-Mux GUI 1.17.8.3, Feb 16 201019:42:50

Video
ID : 0
Format : MPEG-4 Visual
Format profile : Advanced Simple@L5
Format settings, BVOP : 2
Format settings, QPel : No
Format settings, GMC : No warppoints
Format settings, Matrix : Default (H.263)
Codec ID : XVID
Codec ID/Hint : XviD
Duration : 1 h 29 min
Bit rate : 1 511 kb/s
Width : 720 pixels
Height : 400 pixels
Display aspect ratio : 16:9
Frame rate : 25.000 FPS
Color space : YUV
Chroma subsampling : 4:2:0
Bit depth : 8 bits
Scan type : Progressive
Compression mode : Lossy
Bits/(Pixel*Frame) : 0.210
Stream size : 962 MiB (92%)
Writing library : XviD 1.2.1 (UTC 2008-12-04)

Audio
ID : 1
Format : AC-3
Format/Info : Audio Coding 3
Format settings, Endianness : Big
Codec ID : 2000
Duration : 1 h 28 min
Bit rate mode : Constant
Bit rate : 128 kb/s
Channel(s) : 2 channels
Channel positions : Front: L R
Sampling rate : 48.0 kHz
Frame rate : 31.250 FPS (1536 spf)
Bit depth : 16 bits
Compression mode : Lossy
Stream size : 81.5 MiB (8%)
Alignment : Aligned on interleaves
Interleave, duration : 64 ms (1.60 video frames)
Interleave, preload duration : 192 ms
Title : Chopin PID 157d 2_0ch 48KHz 128Kbps DELAY 0ms
Service kind : Complete Main
Screenshots

BBC - Chopin: The Women Behind the Music (2010)

BBC - Chopin: The Women Behind the Music (2010)

BBC - Chopin: The Women Behind the Music (2010)

Welcome to my blog - daily update!