Christmas Encore (2017)

Posted By: Without
1080p (FullHD) / WEB-DL IMDb
Christmas Encore (2017)

Christmas Encore (2017)
WEB-DL 720p | MKV | 1 h 27 min | 2.62 GB | 1280x720 | AVC@3645 kb/s | English AC3@640 kb/s
WEB-DL 1080p | MKV | 1 h 27 min | 5.66 GB | 1920x1080 | AVC@8637 kb/s | English AC3@640 kb/s
Subs: English
Genre: Drama | Romance

A struggling actress earns the lead part in the production of 'A Christmas Carol', and falls in love with the director. But, the cast and crew need a Christmas miracle to save the show when the theater loses its lease.



General
Christmas.Encore.2017.720p.AMZN.WEB-DL.DDP5.1.H.264-ABM.mkv
Format : Matroska
Format version : Version 4 / Version 2
File size : 2.62 GB
Duration : 1 h 27 min
Overall bit rate : 4287 kb/s
Encoded date : UTC 2019-11-06 19:47:50
Writing application : mkvmerge v24.0.0 ('Beyond The Pale') 64-bit
Writing library : libebml v1.3.6 + libmatroska v1.4.9

Video
ID : 1
Format : AVC
Format/Info : Advanced Video Codec
Format profile : High@L3.1
Format settings, CABAC : Yes
Format settings, ReFrames : 4 frames
Codec ID : V_MPEG4/ISO/AVC
Duration : 1 h 27 min
Bit rate mode : Constant
Bit rate : 3645 kb/s
Nominal bit rate : 6000 kb/s
Width : 1280 pixels
Height : 720 pixels
Display aspect ratio : 16:9
Frame rate mode : Constant
Frame rate : 23.976 (24000/1001) FPS
Color space : YUV
Chroma subsampling : 4:2:0
Bit depth : 8 bits
Scan type : Progressive
Bits/(Pixel*Frame) : 0.165
Stream size : 2.22 GB (85%)
Language : English
Default : Yes
Forced : No
Color range : Limited
Color primaries : BT.709
Transfer characteristics : BT.709
Matrix coefficients : BT.709

Audio
ID : 2
Format : E-AC-3
Format/Info : Enhanced Audio Coding 3
Format settings, Endianness : Big
Codec ID : A_EAC3
Duration : 1 h 27 min
Bit rate mode : Constant
Bit rate : 640 kb/s
Channel(s) : 6 channels
Channel positions : Front: L C R, Side: L R, LFE
Sampling rate : 48.0 kHz
Frame rate : 187.500 FPS (256 spf)
Compression mode : Lossy
Stream size : 400 MB (15%)
Language : English
Default : Yes
Forced : No

Text
ID : 3
Format : UTF-8
Codec ID : S_TEXT/UTF8
Codec ID/Info : UTF-8 Plain Text
Duration : 1 h 25 min
Bit rate : 93 b/s
Count of elements : 1786
Stream size : 58.0 KiB (0%)
Language : English
Default : No
Forced : No


General
Christmas.Encore.2017.1080p.AMZN.WEB-DL.DDP5.1.H.264-ABM.mkv
Format : Matroska
Format version : Version 4 / Version 2
File size : 5.66 GB
Duration : 1 h 27 min
Overall bit rate : 9280 kb/s
Encoded date : UTC 2019-11-06 19:46:24
Writing application : mkvmerge v24.0.0 ('Beyond The Pale') 64-bit
Writing library : libebml v1.3.6 + libmatroska v1.4.9

Video
ID : 1
Format : AVC
Format/Info : Advanced Video Codec
Format profile : High@L4
Format settings, CABAC : Yes
Format settings, ReFrames : 4 frames
Codec ID : V_MPEG4/ISO/AVC
Duration : 1 h 27 min
Bit rate mode : Constant
Bit rate : 8637 kb/s
Nominal bit rate : 10000 kb/s
Width : 1920 pixels
Height : 1080 pixels
Display aspect ratio : 16:9
Frame rate mode : Constant
Frame rate : 23.976 (24000/1001) FPS
Color space : YUV
Chroma subsampling : 4:2:0
Bit depth : 8 bits
Scan type : Progressive
Bits/(Pixel*Frame) : 0.174
Stream size : 5.27 GB (93%)
Language : English
Default : Yes
Forced : No
Color range : Limited
Color primaries : BT.709
Transfer characteristics : BT.709
Matrix coefficients : BT.709

Audio
ID : 2
Format : E-AC-3
Format/Info : Enhanced Audio Coding 3
Format settings, Endianness : Big
Codec ID : A_EAC3
Duration : 1 h 27 min
Bit rate mode : Constant
Bit rate : 640 kb/s
Channel(s) : 6 channels
Channel positions : Front: L C R, Side: L R, LFE
Sampling rate : 48.0 kHz
Frame rate : 187.500 FPS (256 spf)
Compression mode : Lossy
Stream size : 400 MB (7%)
Language : English
Default : Yes
Forced : No

Text
ID : 3
Format : UTF-8
Codec ID : S_TEXT/UTF8
Codec ID/Info : UTF-8 Plain Text
Duration : 1 h 25 min
Bit rate : 93 b/s
Count of elements : 1786
Stream size : 58.0 KiB (0%)
Language : English
Default : No
Forced : No



WEB-DL 720p Screenshots

Christmas Encore (2017)

Christmas Encore (2017)

Christmas Encore (2017)


WEB-DL 1080p Screenshots

Christmas Encore (2017)

Christmas Encore (2017)

Christmas Encore (2017)


Come Visit My Blog (•‿•)