Christmas at Grand Valley (2018)

Posted By: Without
1080p (FullHD) / WEB-DL IMDb
Christmas at Grand Valley (2018)

Christmas at Grand Valley (2018)
WEB-DL 720p | MKV | 1 h 26 min | 3.05 GB | 1280x720 | AVC@4423 kb/s | English AC3@640 kb/s
WEB-DL 1080p | MKV | 1 h 26 min | 6.15 GB | 1920x1080 | AVC@10000 kb/s | English AC3@640 kb/s
Subs: English
Genre: Romance

"Burned out from the hubbub of the Chicago gallery world, artist Kelly (Danica McKellar) returns home to the picturesque Grand Valley just in time for Christmas. Maybe her favorite town's shining season will reinvigorate her love of art and guide her down her next path. Leo (Brennan Elliott), businessman and all-star dad to his children, struggles to balance his time this holiday season. When he is assigned to review a hotel in Grand Valley for its value, he sees this as the perfect opportunity for a Christmas family vacation. It isn't long until Kelly and Leo's worlds collide. As Kelly re-experiences her favorite Grand Valley traditions with Leo and his children, she begins to find her way back to her passion for art."



General
Christmas.At.Grand.Valley.2018.720p.AMZN.WEB-DL.DDP5.1.H.264-ABM.mkv
Format : Matroska
Format version : Version 4 / Version 2
File size : 3.05 GB
Duration : 1 h 26 min
Overall bit rate : 5065 kb/s
Encoded date : UTC 2019-11-07 04:29:18
Writing application : mkvmerge v24.0.0 ('Beyond The Pale') 64-bit
Writing library : libebml v1.3.6 + libmatroska v1.4.9

Video
ID : 1
Format : AVC
Format/Info : Advanced Video Codec
Format profile : High@L3.1
Format settings, CABAC : Yes
Format settings, ReFrames : 4 frames
Codec ID : V_MPEG4/ISO/AVC
Duration : 1 h 26 min
Bit rate mode : Constant
Bit rate : 4423 kb/s
Nominal bit rate : 6000 kb/s
Width : 1280 pixels
Height : 720 pixels
Display aspect ratio : 16:9
Frame rate mode : Constant
Frame rate : 23.976 (24000/1001) FPS
Color space : YUV
Chroma subsampling : 4:2:0
Bit depth : 8 bits
Scan type : Progressive
Bits/(Pixel*Frame) : 0.200
Stream size : 2.67 GB (87%)
Language : English
Default : Yes
Forced : No
Color range : Limited
Color primaries : BT.709
Transfer characteristics : BT.709
Matrix coefficients : BT.709

Audio
ID : 2
Format : E-AC-3
Format/Info : Enhanced Audio Coding 3
Format settings, Endianness : Big
Codec ID : A_EAC3
Duration : 1 h 26 min
Bit rate mode : Constant
Bit rate : 640 kb/s
Channel(s) : 6 channels
Channel positions : Front: L C R, Side: L R, LFE
Sampling rate : 48.0 kHz
Frame rate : 187.500 FPS (256 spf)
Compression mode : Lossy
Stream size : 395 MB (13%)
Language : English
Default : Yes
Forced : No

Text
ID : 3
Format : UTF-8
Codec ID : S_TEXT/UTF8
Codec ID/Info : UTF-8 Plain Text
Duration : 1 h 23 min
Bit rate : 83 b/s
Count of elements : 1612
Stream size : 50.9 KiB (0%)
Language : English
Default : No
Forced : No


General
Christmas.At.Grand.Valley.2018.1080p.AMZN.WEB-DL.DDP5.1.H.264-ABM.mkv
Format : Matroska
Format version : Version 4 / Version 2
File size : 6.15 GB
Duration : 1 h 26 min
Overall bit rate : 10.2 Mb/s
Encoded date : UTC 2019-11-07 04:28:04
Writing application : mkvmerge v24.0.0 ('Beyond The Pale') 64-bit
Writing library : libebml v1.3.6 + libmatroska v1.4.9

Video
ID : 1
Format : AVC
Format/Info : Advanced Video Codec
Format profile : High@L4
Format settings, CABAC : Yes
Format settings, ReFrames : 4 frames
Codec ID : V_MPEG4/ISO/AVC
Duration : 1 h 26 min
Bit rate mode : Constant
Bit rate : 10000 kb/s
Width : 1920 pixels
Height : 1080 pixels
Display aspect ratio : 16:9
Frame rate mode : Constant
Frame rate : 23.976 (24000/1001) FPS
Color space : YUV
Chroma subsampling : 4:2:0
Bit depth : 8 bits
Scan type : Progressive
Bits/(Pixel*Frame) : 0.201
Stream size : 5.76 GB (94%)
Language : English
Default : Yes
Forced : No
Color range : Limited
Color primaries : BT.709
Transfer characteristics : BT.709
Matrix coefficients : BT.709

Audio
ID : 2
Format : E-AC-3
Format/Info : Enhanced Audio Coding 3
Format settings, Endianness : Big
Codec ID : A_EAC3
Duration : 1 h 26 min
Bit rate mode : Constant
Bit rate : 640 kb/s
Channel(s) : 6 channels
Channel positions : Front: L C R, Side: L R, LFE
Sampling rate : 48.0 kHz
Frame rate : 187.500 FPS (256 spf)
Compression mode : Lossy
Stream size : 395 MB (6%)
Language : English
Default : Yes
Forced : No

Text
ID : 3
Format : UTF-8
Codec ID : S_TEXT/UTF8
Codec ID/Info : UTF-8 Plain Text
Duration : 1 h 23 min
Bit rate : 83 b/s
Count of elements : 1612
Stream size : 50.9 KiB (0%)
Language : English
Default : No
Forced : No



WEB-DL 720p Screenshots

Christmas at Grand Valley (2018)

Christmas at Grand Valley (2018)

Christmas at Grand Valley (2018)


WEB-DL 1080p Screenshots

Christmas at Grand Valley (2018)

Christmas at Grand Valley (2018)

Christmas at Grand Valley (2018)


Come Visit My Blog (•‿•)