Christmas in Love (2018)

Posted By: Without
1080p (FullHD) / WEB-DL IMDb
Christmas in Love (2018)

Christmas in Love (2018)
WEB-DL 720p | MKV | 1 h 26 min | 3.42 GB | 1280x720 | AVC@5030 kb/s | English AC3@640 kb/s
WEB-DL 1080p | MKV | 1 h 26 min | 6.17 GB | 1920x1080 | AVC@10000 kb/s | English AC3@640 kb/s
Subs: English
Genre: Romance

Ellie Hartman, an aspiring crafter working in her small town's bakery shows Nick Carlingson –the big city new CEO during his visit to the bakery's main floor– that it's people and not machines that make the business a success.



General
Christmas.In.Love.2018.720p.AMZN.WEB-DL.DDP5.1.H.264-ABM.mkv
Format : Matroska
Format version : Version 4 / Version 2
File size : 3.42 GB
Duration : 1 h 26 min
Overall bit rate : 5672 kb/s
Encoded date : UTC 2019-11-06 19:49:52
Writing application : mkvmerge v24.0.0 ('Beyond The Pale') 64-bit
Writing library : libebml v1.3.6 + libmatroska v1.4.9

Video
ID : 1
Format : AVC
Format/Info : Advanced Video Codec
Format profile : High@L3.1
Format settings, CABAC : Yes
Format settings, ReFrames : 4 frames
Codec ID : V_MPEG4/ISO/AVC
Duration : 1 h 26 min
Bit rate mode : Constant
Bit rate : 5030 kb/s
Nominal bit rate : 6000 kb/s
Width : 1280 pixels
Height : 720 pixels
Display aspect ratio : 16:9
Frame rate mode : Constant
Frame rate : 23.976 (24000/1001) FPS
Color space : YUV
Chroma subsampling : 4:2:0
Bit depth : 8 bits
Scan type : Progressive
Bits/(Pixel*Frame) : 0.228
Stream size : 3.03 GB (89%)
Language : English
Default : Yes
Forced : No
Color range : Limited
Color primaries : BT.709
Transfer characteristics : BT.709
Matrix coefficients : BT.709

Audio
ID : 2
Format : E-AC-3
Format/Info : Enhanced Audio Coding 3
Format settings, Endianness : Big
Codec ID : A_EAC3
Duration : 1 h 26 min
Bit rate mode : Constant
Bit rate : 640 kb/s
Channel(s) : 6 channels
Channel positions : Front: L C R, Side: L R, LFE
Sampling rate : 48.0 kHz
Frame rate : 187.500 FPS (256 spf)
Compression mode : Lossy
Stream size : 395 MB (11%)
Language : English
Default : Yes
Forced : No

Text
ID : 3
Format : UTF-8
Codec ID : S_TEXT/UTF8
Codec ID/Info : UTF-8 Plain Text
Duration : 1 h 23 min
Bit rate : 98 b/s
Count of elements : 1577
Stream size : 60.2 KiB (0%)
Language : English
Default : No
Forced : No


General
Christmas.In.Love.2018.1080p.AMZN.WEB-DL.DDP5.1.H.264-ABM.mkv
Format : Matroska
Format version : Version 4 / Version 2
File size : 6.17 GB
Duration : 1 h 26 min
Overall bit rate : 10.2 Mb/s
Encoded date : UTC 2019-11-06 19:48:25
Writing application : mkvmerge v24.0.0 ('Beyond The Pale') 64-bit
Writing library : libebml v1.3.6 + libmatroska v1.4.9

Video
ID : 1
Format : AVC
Format/Info : Advanced Video Codec
Format profile : High@L4
Format settings, CABAC : Yes
Format settings, ReFrames : 4 frames
Codec ID : V_MPEG4/ISO/AVC
Duration : 1 h 26 min
Bit rate mode : Constant
Bit rate : 10000 kb/s
Width : 1920 pixels
Height : 1080 pixels
Display aspect ratio : 16:9
Frame rate mode : Constant
Frame rate : 23.976 (24000/1001) FPS
Color space : YUV
Chroma subsampling : 4:2:0
Bit depth : 8 bits
Scan type : Progressive
Bits/(Pixel*Frame) : 0.201
Stream size : 5.78 GB (94%)
Language : English
Default : Yes
Forced : No
Color range : Limited
Color primaries : BT.709
Transfer characteristics : BT.709
Matrix coefficients : BT.709

Audio
ID : 2
Format : E-AC-3
Format/Info : Enhanced Audio Coding 3
Format settings, Endianness : Big
Codec ID : A_EAC3
Duration : 1 h 26 min
Bit rate mode : Constant
Bit rate : 640 kb/s
Channel(s) : 6 channels
Channel positions : Front: L C R, Side: L R, LFE
Sampling rate : 48.0 kHz
Frame rate : 187.500 FPS (256 spf)
Compression mode : Lossy
Stream size : 395 MB (6%)
Language : English
Default : Yes
Forced : No

Text
ID : 3
Format : UTF-8
Codec ID : S_TEXT/UTF8
Codec ID/Info : UTF-8 Plain Text
Duration : 1 h 23 min
Bit rate : 98 b/s
Count of elements : 1577
Stream size : 60.2 KiB (0%)
Language : English
Default : No
Forced : No



WEB-DL 720p Screenshots

Christmas in Love (2018)

Christmas in Love (2018)

Christmas in Love (2018)


WEB-DL 1080p Screenshots

Christmas in Love (2018)

Christmas in Love (2018)

Christmas in Love (2018)


Come Visit My Blog (•‿•)