Lunabeach - Cinema Perverso - The Wonderful and Twisted World of Railroad Cinemas (2015)

Posted By: notbanned
720p (HD) / HDTV
Lunabeach - Cinema Perverso - The Wonderful and Twisted World of Railroad Cinemas (2015)

Lunabeach - Cinema Perverso - The Wonderful and Twisted World of Railroad Cinemas (2015)
HDTV | 1280x720 | .MP4/AVC @ 2452 Kbps | 58 min 30 s | 1.05 GiB
Audio: German AAC 125 kbps, 2 channels | Subs: English
Genre: Documentary

A 58-minute documentary exploring the phenomenon of the once thriving German railroad cinemas. What originally started as a venue for the awaiting travellers in the 1950s has developed, along with the increasing viewing figures, into a web of 30 cinemas where all sorts of exploitation movies reigned supreme, ranging from pepla to spaghetti westerns and later also sex films. All until their almost complete demise in the 1980s brought about by the advent of home video.

General
Complete name : Cinema.Perverso-The.Wonderful.and.Twisted.World.of.Railroad.Cinemas.720p.mp4
Format : MPEG-4
Format profile : Base Media / Version 2
Codec ID : mp42 (isom/mp42)
File size : 1.05 GiB
Duration : 58 min 30 s
Overall bit rate mode : Variable
Overall bit rate : 2 581 kb/s

Video
ID : 1
Format : AVC
Format/Info : Advanced Video Codec
Format profile : Main@L3.1
Format settings, CABAC : Yes
Format settings, ReFrames : 3 frames
Codec ID : avc1
Codec ID/Info : Advanced Video Coding
Duration : 58 min 30 s
Bit rate : 2 452 kb/s
Width : 1 280 pixels
Height : 720 pixels
Display aspect ratio : 16:9
Frame rate mode : Constant
Frame rate : 25.000 FPS
Standard : PAL
Color space : YUV
Chroma subsampling : 4:2:0
Bit depth : 8 bits
Scan type : Progressive
Bits/(Pixel*Frame) : 0.106
Stream size : 1.00 GiB (95%)
Encoded date : UTC 2015-11-06 16:57:45
Tagged date : UTC 2015-11-06 16:57:45
Color range : Limited

Audio
ID : 2
Format : AAC
Format/Info : Advanced Audio Codec
Format profile : LC
Codec ID : 40
Duration : 58 min 30 s
Bit rate mode : Variable
Bit rate : 125 kb/s
Maximum bit rate : 402 kb/s
Channel(s) : 2 channels
Channel positions : Front: L R
Sampling rate : 48.0 kHz
Frame rate : 46.875 FPS (1024 spf)
Compression mode : Lossy
Stream size : 52.5 MiB (5%)
Encoded date : UTC 2015-11-06 16:57:45
Tagged date : UTC 2015-11-06 16:57:45


Screenshots:

Lunabeach - Cinema Perverso - The Wonderful and Twisted World of Railroad Cinemas (2015)

Lunabeach - Cinema Perverso - The Wonderful and Twisted World of Railroad Cinemas (2015)

Lunabeach - Cinema Perverso - The Wonderful and Twisted World of Railroad Cinemas (2015)

Lunabeach - Cinema Perverso - The Wonderful and Twisted World of Railroad Cinemas (2015)