Tags
Language
Tags

City of Fear (1959)

Posted By: Tavaz
1080p (FullHD) / BDRip IMDb
City of Fear (1959)

City of Fear (1959)
BDRip | MKV | 1920x1040 | English | H264 @ 15924 kbps | FLAC @ 665 kbps | 1 h 15 min | 8.77 GiB
Subtitles: English
Genre: Drama, Thriller

An escaped convict gets a hold of some radioactive material after his escape. Authorities desperately try to find the man that unknowingly is threating the lives of everyone in the city.

City.of.Fear.1959.1080p.BluRay.x264-ORBS.part1.rar (4.6 GB)
City.of.Fear.1959.1080p.BluRay.x264-ORBS.part2.rar (4.3 GB)



General
Unique ID : 316445382383300721604945083511576407776 (0xEE1129ECCC63C3761385B3DE83272EE0)
Complete name : ./d347555b56553fbdd28739a4bbe0d26f.mkv
Format : Matroska
Format version : Version 4 / Version 2
File size : 8.77 GiB
Duration : 1 h 15 min
Overall bit rate mode : Variable
Overall bit rate : 16.7 Mb/s
Encoded date : UTC 2021-05-31 22:11:51
Writing application : mkvmerge v52.0.0 ('Secret For The Mad') 64-bit
Writing library : libebml v1.4.1 + libmatroska v1.6.2

Video
ID : 1
Format : AVC
Format/Info : Advanced Video Codec
Format profile : High@L4.1
Format settings : CABAC / 4 Ref Frames
Format settings, CABAC : Yes
Format settings, RefFrames : 4 frames
Codec ID : V_MPEG4/ISO/AVC
Duration : 1 h 15 min
Bit rate : 15.9 Mb/s
Width : 1 920 pixels
Height : 1 040 pixels
Display aspect ratio : 1.85:1
Frame rate mode : Constant
Frame rate : 23.976 (24000/1001) FPS
Color space : YUV
Chroma subsampling : 4:2:0
Bit depth : 8 bits
Scan type : Progressive
Bits/(Pixel*Frame) : 0.333
Stream size : 8.36 GiB (95%)
Writing library : x264 core 163 r3059 b684ebe
Encoding settings : cabac=1 / ref=4 / deblock=1:-3:-3 / analyse=0x3:0x133 / me=umh / subme=10 / psy=1 / psy_rd=1.50:0.15 / mixed_ref=1 / me_range=24 / chroma_me=1 / trellis=2 / 8x8dct=1 / cqm=0 / deadzone=21,11 / fast_pskip=0 / chroma_qp_offset=-3 / threads=24 / lookahead_threads=4 / sliced_threads=0 / nr=0 / decimate=0 / interlaced=0 / bluray_compat=0 / constrained_intra=0 / bframes=8 / b_pyramid=2 / b_adapt=2 / b_bias=0 / direct=3 / weightb=1 / open_gop=0 / weightp=2 / keyint=250 / keyint_min=23 / scenecut=40 / intra_refresh=0 / rc_lookahead=60 / rc=crf / mbtree=1 / crf=21.0 / qcomp=0.60 / qpmin=0 / qpmax=69 / qpstep=4 / ip_ratio=1.40 / aq=3:0.50
Default : Yes
Forced : No
Color range : Limited
Matrix coefficients : BT.709

Audio #1
ID : 2
Format : FLAC
Format/Info : Free Lossless Audio Codec
Codec ID : A_FLAC
Duration : 1 h 15 min
Bit rate mode : Variable
Bit rate : 666 kb/s
Channel(s) : 1 channel
Channel positions : Front: C
Sampling rate : 48.0 kHz
Frame rate : 11.719 FPS (4096 SPF)
Bit depth : 24 bits
Stream size : 358 MiB (4%)
Writing library : libFLAC 1.3.3 (UTC 2019-08-04)
Language : English
Default : Yes
Forced : No

Audio #2
ID : 3
Format : AAC
Format/Info : Advanced Audio Codec
Format profile : LC
Codec ID : A_AAC-2
Duration : 1 h 15 min
Bit rate : 99.9 kb/s
Channel(s) : 2 channels
Channel positions : Front: L R
Sampling rate : 48.0 kHz
Frame rate : 46.875 FPS (1024 SPF)
Compression mode : Lossy
Delay relative to video : 20 ms
Stream size : 53.7 MiB (1%)
Title : Commentary
Language : English
Default : No
Forced : No

Text
ID : 4
Format : PGS
Muxing mode : zlib
Codec ID : S_HDMV/PGS
Codec ID/Info : Picture based subtitle format used on BDs/HD-DVDs
Duration : 1 h 13 min
Bit rate : 39.6 kb/s
Count of elements : 1824
Stream size : 20.9 MiB (0%)
Title : SDH
Language : English
Default : No
Forced : No

Menu
00:00:00.000 : en:Chapter 01
00:07:22.233 : en:Chapter 02
00:15:46.988 : en:Chapter 03
00:20:35.734 : en:Chapter 04
00:28:53.231 : en:Chapter 05
00:38:49.452 : en:Chapter 06
00:46:41.132 : en:Chapter 07
00:53:02.137 : en:Chapter 08
00:59:08.754 : en:Chapter 09
01:06:58.139 : en:Chapter 10





City of Fear (1959)


City of Fear (1959)


City of Fear (1959)


City of Fear (1959)


City of Fear (1959)