Tags
Language
Tags

BBC - Clara Bow: Hollywood's Lost Screen Goddess (2012)

Posted By: notbanned
SD / WEB-DL
BBC - Clara Bow: Hollywood's Lost Screen Goddess (2012)

BBC - Clara Bow: Hollywood's Lost Screen Goddess (2012)
WEB-DL | 832x468 | .MP4/AVC @ 1404 Kbps | 59 min 6 s | 635 MiB
Audio: English AAC 93 kbps, 2 channels | Subs: English
Genre: Documentary

Documentary about Clara Bow, a cinema sensation who broke box office records and became one of the greatest stars of the silent screen. Amid scandal and ill health, she retired for good at the age of just 28. Once the Queen of Hollywood, now largely forgotten - whatever happened to Clara Bow?

General
Complete name : Clara.Bow.Hollywoods.Lost.Screen.Goddess.2020.WEB-DL.mp4
Format : MPEG-4
Format profile : Base Media / Version 2
Codec ID : mp42 (mp42/isom)
File size : 635 MiB
Duration : 59 min 6 s
Overall bit rate mode : Variable
Overall bit rate : 1 503 kb/s

Video
ID : 1
Format : AVC
Format/Info : Advanced Video Codec
Format profile : Main@L3.1
Format settings, CABAC : Yes
Format settings, ReFrames : 2 frames
Codec ID : avc1
Codec ID/Info : Advanced Video Coding
Duration : 59 min 6 s
Source duration : 59 min 6 s
Bit rate mode : Constant
Bit rate : 1 404 kb/s
Width : 832 pixels
Height : 468 pixels
Display aspect ratio : 16:9
Frame rate mode : Variable
Frame rate : 25.000 FPS
Minimum frame rate : 12.500 FPS
Maximum frame rate : 25.000 FPS
Color space : YUV
Chroma subsampling : 4:2:0
Bit depth : 8 bits
Scan type : Progressive
Bits/(Pixel*Frame) : 0.144
Stream size : 593 MiB (93%)
Source stream size : 593 MiB (93%)
Encoded date : UTC 2020-09-11 06:17:08
Tagged date : UTC 2020-09-11 06:17:32

Audio
ID : 2
Format : AAC
Format/Info : Advanced Audio Codec
Format profile : LC
Codec ID : 40
Duration : 59 min 5 s
Bit rate mode : Variable
Bit rate : 93.5 kb/s
Maximum bit rate : 3 762 Mb/s
Channel(s) : 2 channels
Channel positions : Front: L R
Sampling rate : 48.0 kHz
Frame rate : 46.875 FPS (1024 spf)
Compression mode : Lossy
Stream size : 39.5 MiB (6%)
Language : English
Default : Yes
Alternate group : 1
Encoded date : UTC 2020-09-11 06:17:08
Tagged date : UTC 2020-09-11 06:17:32

Text
ID : 3
Format : Timed Text
Muxing mode : sbtl
Codec ID : tx3g
Duration : 58 min 37 s
Bit rate mode : Variable
Bit rate : 96 b/s
Stream size : 41.1 KiB (0%)
Language : English
Default : Yes
Forced : No
Alternate group : 2
Encoded date : UTC 2020-09-11 06:17:08
Tagged date : UTC 2020-09-11 06:17:08


Screenshots:

BBC - Clara Bow: Hollywood's Lost Screen Goddess (2012)

BBC - Clara Bow: Hollywood's Lost Screen Goddess (2012)

BBC - Clara Bow: Hollywood's Lost Screen Goddess (2012)

BBC - Clara Bow: Hollywood's Lost Screen Goddess (2012)