Nature S31E08 - Cold Warriors: Wolves and Buffalo (2013)

Posted By: vivid23
Nature S31E08 - Cold Warriors: Wolves and Buffalo (2013)

Nature S31E08 - Cold Warriors: Wolves and Buffalo (2013)
HDTV | 1280x720 | MKV/x264 @ 5036 Kbps | 52mn | Audio: English AC3 192 kbps, 2 channels | Subs: None | 1.97 GB
Genre: Documentary

The ancient rite of wolves hunting buffalo is chronicled at Canada’s Wood Buffalo National Park, which straddles Alberta and the Northwest Territories. Aerial cameras help document the tactics employed by a wolf pack and the buffalo’s evasive maneuvers. While the hunt is on during winter, come spring and summer the pack reins in its expeditions after the alpha female gives birth to pups, which need protection in addition to food. If they survive to autumn, however, they’ll join in on the hunt.

More info

Video
ID : 1
Format : AVC
Format/Info : Advanced Video Codec
Format profile : High@L4.1
Format settings, CABAC : Yes
Format settings, ReFrames : 8 frames
Format settings, GOP : M=2, N=3
Codec ID : V_MPEG4/ISO/AVC
Duration : 52mn 56s
Bit rate : 5 036 Kbps
Width : 1 280 pixels
Height : 720 pixels
Display aspect ratio : 16:9
Frame rate : 25.000 fps
Color space : YUV
Chroma subsampling : 4:2:0
Bit depth : 8 bits
Scan type : Progressive
Bits/(Pixel*Frame) : 0.219
Stream size : 1.86 GiB (94%)
Writing library : x264 core 129 r2245 bc13772
Encoding settings : cabac=1 / ref=8 / deblock=1:0:0 / analyse=0x3:0x113 / me=umh / subme=9 / psy=1 / psy_rd=1.00:0.00 / mixed_ref=1 / me_range=16 / chroma_me=1 / trellis=1 / 8x8dct=1 / cqm=0 / deadzone=21,11 / fast_pskip=1 / chroma_qp_offset=-2 / threads=18 / lookahead_threads=3 / sliced_threads=0 / nr=0 / decimate=1 / interlaced=0 / bluray_compat=0 / constrained_intra=0 / bframes=3 / b_pyramid=2 / b_adapt=2 / b_bias=0 / direct=3 / weightb=1 / open_gop=0 / weightp=2 / keyint=250 / keyint_min=25 / scenecut=40 / intra_refresh=0 / rc_lookahead=50 / rc=crf / mbtree=1 / crf=20.0 / qcomp=0.60 / qpmin=0 / qpmax=69 / qpstep=4 / ip_ratio=1.40 / aq=1:1.00
Language : English

Audio
ID : 2
Format : AC-3
Format/Info : Audio Coding 3
Mode extension : CM (complete main)
Codec ID : A_AC3
Duration : 52mn 56s
Bit rate mode : Constant
Bit rate : 192 Kbps
Channel(s) : 2 channels
Channel positions : Front: L R
Sampling rate : 48.0 KHz
Bit depth : 16 bits
Compression mode : Lossy
Stream size : 72.7 MiB (4%)


Nature S31E08 - Cold Warriors: Wolves and Buffalo (2013)

Nature S31E08 - Cold Warriors: Wolves and Buffalo (2013)


Feel free to contact me when links are dead