Tags
Language
Tags
June 2024
Su Mo Tu We Th Fr Sa
26 27 28 29 30 31 1
2 3 4 5 6 7 8
9 10 11 12 13 14 15
16 17 18 19 20 21 22
23 24 25 26 27 28 29
30 1 2 3 4 5 6

Miles Lagoze - Combat Obscura (2018)

Posted By: Tutorial
720p (HD) / HDTV
Miles Lagoze - Combat Obscura (2018)

Miles Lagoze - Combat Obscura (2018)
HDTV | 1280 x 720 | .MKV/AVC @ 5225 Kbps | 1 h 10 min | 2.72 GB
Audio: English E-AC-3 224 Kbps, 2 channels | Subs: English
Genre: Documentary

For years, Miles Lagoze served in Afghanistan as a combat cameraman, shooting footage and editing videos for Marine Corps recruiting purposes.

In this devastating film, Lagoze assembles his own footage and that of his fellow combat cameramen into a never-before-seen look at the daily life of Marines from the ultimate insider's point of view. More than a mere compilation of violence, the edit ingeniously repurposes the original footage to reveal the intensity and paradoxes of war in an age of ubiquitous cameras, when all soldiers can record themselves with helmet-cams and cellphones. Combat Obscura revels in the chasm separating civilian from military life and questions the psychological toll war exacts on all that it touches.

General
Unique ID : 188744849715879954462155767906186996120 (0x8DFEEF900AF2BB739CEEEA639966A998)
Complete name : Combat.Obscura.mkv
Format : Matroska
Format version : Version 4 / Version 2
File size : 2.72 GiB
Duration : 1 h 10 min
Overall bit rate : 5 559 kb/s
Encoded date : UTC 2019-03-15 04:20:19
Writing application : mkvmerge v21.0.0 ('Tardigrades Will Inherit The Earth') 64-bit
Writing library : libebml v1.3.5 + libmatroska v1.4.8

Video
ID : 1
Format : AVC
Format/Info : Advanced Video Codec
Format profile : High@L3.1
Format settings, CABAC : Yes
Format settings, ReFrames : 4 frames
Codec ID : V_MPEG4/ISO/AVC
Duration : 1 h 10 min
Bit rate mode : Constant
Bit rate : 5 225 kb/s
Nominal bit rate : 6 000 kb/s
Width : 1 280 pixels
Height : 720 pixels
Display aspect ratio : 16:9
Frame rate mode : Constant
Frame rate : 23.976 (24000/1001) FPS
Color space : YUV
Chroma subsampling : 4:2:0
Bit depth : 8 bits
Scan type : Progressive
Bits/(Pixel*Frame) : 0.236
Stream size : 2.56 GiB (94%)
Default : Yes
Forced : No
Color range : Limited
Color primaries : BT.709
Transfer characteristics : BT.709
Matrix coefficients : BT.709

Audio
ID : 2
Format : E-AC-3
Format/Info : Enhanced Audio Coding 3
Format settings, Endianness : Big
Codec ID : A_EAC3
Duration : 1 h 10 min
Bit rate mode : Constant
Bit rate : 224 kb/s
Channel(s) : 2 channels
Channel positions : Front: L R
Sampling rate : 48.0 kHz
Frame rate : 187.500 FPS (256 spf)
Compression mode : Lossy
Stream size : 112 MiB (4%)
Language : English
Service kind : Complete Main
Default : Yes
Forced : No

Text #1
ID : 3
Format : UTF-8
Codec ID : S_TEXT/UTF8
Codec ID/Info : UTF-8 Plain Text
Language : English
Default : No
Forced : No

Text #2
ID : 4
Format : UTF-8
Codec ID : S_TEXT/UTF8
Codec ID/Info : UTF-8 Plain Text
Title : SDH
Language : English
Default : No
Forced : No
Screenshots

Miles Lagoze - Combat Obscura (2018)

Miles Lagoze - Combat Obscura (2018)

Welcome to my blog - daily update!