Tags
Language
Tags

Smithsonian Ch. - Combat Ships: Series 1 (2016)

Posted By: Tutorial
1080p (FullHD) / HDTV
Smithsonian Ch. - Combat Ships: Series 1 (2016)

Smithsonian Ch. - Combat Ships: Series 1 (2016)
HDTV | 1920 x 1080 | .MP4/AVC @ 4520 Kbps | 10x~42mn | 13.7 GB
Audio: English AAC 160 Kbps, 2 channels | Subs: None
Genre: Documentary

The very first submarine, which legend claims lurked beneath New York Harbor during the American Revolutionary War. The small ships that rescued thousands from Dunkirk. The destroyer that forced the easing of the Cuban Missile Crisis. Over the centuries, conflicts have prompted advances to ship designs, making vessels stronger, faster, smarter, and capable of changing the course of wars. Join us as we examine the world's greatest Combat Ships, and reveal how they shaped world history and inspired men and women to acts of incredible courage.

Part 1: War Beneath the Waves
See how the submarine transformed from a risky experiment to a vessel that could change the fortune of war.


Part 2: Metal War Ships
From Britain's HMS Warrior to the American Civil War showdown between the Monitor and the Virginia, behold the first metal warships.


Part 3: World Wars
From convoy escort to beach invader to floating artillery vessel, witness the triumphs and tragedies of WWI and WWII battleships.


Part 4: D Day
Discover the warships, guard boats, floating tanks, and other vessels of Operation Neptune that made D-Day possible.


Part 5: Torpedo Boats
From German S-boats to the patroller that helped make JFK an American icon, witness the world's most famous torpedo boats


Part 6: Rescue Ships
Witness stories of selfless bravery aboard the greatest rescue ships of the last two centuries.


Part 7: Cold War Warriors
From the Cuban Missile Crisis to the covert naval operations of the 1980s, see the role of combat ships during the Cold War.


Part 8: The Smallest Ships
The remarkable stories of war's small ships and the roles they played in Pearl Harbor, Dunkirk, and more.


Part 9: Secrets and Lies
Witness the wild, creative, and audacious ways navies of the early 20th century disguised their vessels in times of war.


Part 10: Wooden Warships
A 500-year journey aboard history's most famous, most sophisticated, and most heavily armed wooden warships.

General
Complete name : Combat.Ships.Series.1.01of10.War.Beneath.the.Waves.mp4
Format : MPEG-4
Format profile : Base Media
Codec ID : isom (isom)
File size : 1.36 GiB
Duration : 42 min 0 s
Overall bit rate mode : Variable
Overall bit rate : 4 647 kb/s
Encoded date : UTC 2019-07-13 14:35:38
Tagged date : UTC 2019-07-13 14:35:38

Video
ID : 1
Format : AVC
Format/Info : Advanced Video Codec
Format profile : High@L4.1
Format settings, CABAC : No
Format settings, ReFrames : 1 frame
Format settings, GOP : M=1, N=12
Codec ID : avc1
Codec ID/Info : Advanced Video Coding
Duration : 42 min 0 s
Bit rate : 4 520 kb/s
Maximum bit rate : 16.8 Mb/s
Width : 1 920 pixels
Height : 1 080 pixels
Display aspect ratio : 16:9
Frame rate mode : Constant
Frame rate : 29.970 (30000/1001) FPS
Color space : YUV
Chroma subsampling : 4:2:0
Bit depth : 8 bits
Scan type : Progressive
Bits/(Pixel*Frame) : 0.073
Stream size : 1.33 GiB (97%)
Title : Combat.Ships.Series.1.01of10.War.Beneath.the.Waves.1080p.HDTV.x264.AAC..org.mp4
Encoded date : UTC 2019-07-12 22:36:48
Tagged date : UTC 2019-07-13 14:36:20

Audio
ID : 2
Format : AAC
Format/Info : Advanced Audio Codec
Format profile : LC
Codec ID : 40
Duration : 42 min 0 s
Bit rate mode : Variable
Bit rate : 124 kb/s
Maximum bit rate : 169 kb/s
Channel(s) : 2 channels
Channel positions : Front: L R
Sampling rate : 48.0 kHz
Frame rate : 46.875 FPS (1024 spf)
Compression mode : Lossy
Stream size : 37.3 MiB (3%)
Title : Combat.Ships.Series.1.01of10.War.Beneath.the.Waves.1080p.HDTV.x264.AAC..org.mp4
Encoded date : UTC 2019-07-13 14:36:14
Tagged date : UTC 2019-07-13 14:36:20

Text
ID : 3
Format : Timed Text
Codec ID : tx3g
Duration : 41 min 57 s
Bit rate mode : Variable
Bit rate : 230 b/s
Stream size : 70.7 KiB (0%)
Title : Combat.Ships.Series.1.01of10.War.Beneath.the.Waves.1080p.HDTV.x264.AAC..org.srt
Forced : No
Encoded date : UTC 2019-07-13 14:36:20
Tagged date : UTC 2019-07-13 14:36:20
Screenshots

Smithsonian Ch. - Combat Ships: Series 1 (2016)

Smithsonian Ch. - Combat Ships: Series 1 (2016)

Smithsonian Ch. - Combat Ships: Series 1 (2016)

Welcome to my blog - daily update!