Tags
Language
Tags

Commando (1985)

Posted By: Tavaz
1080p (FullHD) / BDRip IMDb
Commando (1985)

Commando (1985)
BDRip | MKV | 1920x1040 | English | H265 @ 2934 kbps | AC-3 @ 448 kbps | 1 h 31 min | 2.18 GiB
Subtitles: English
Genre: Action, Adventure, Thriller

John Matrix, the former leader of a special commando strike force that always got the toughest jobs done, is forced back into action when his young daughter is kidnapped. To find her, Matrix has to fight his way through an array of punks, killers, one of his former commandos, and a fully equipped private army. With the help of a feisty stewardess and an old friend, Matrix has only a few hours to overcome his greatest challenge: finding his daughter before she's killed.

1dc33bda73ee4806bb5b6bf9d247a06e.mkv (2.2 GB)



General
Unique ID : 189626205688986091945891605769593401358 (0x8EA8ADC46001EFD393B452031D51B00E)
Complete name : ./1dc33bda73ee4806bb5b6bf9d247a06e.mkv
Format : Matroska
Format version : Version 2
File size : 2.18 GiB
Duration : 1 h 31 min
Overall bit rate : 3 402 kb/s
Movie name : Commando 1985 EXtCut BluRay 10Bit 1080p DD5.1 H265-d3g
Encoded date : UTC 2018-01-24 22:04:47
Writing application : DVDFab 10.0.7.7
Writing library : libebml v1.3.4 + libmatroska v1.4.5

Video
ID : 1
Format : HEVC
Format/Info : High Efficiency Video Coding
Format profile : Main 10@L4@Main
Codec ID : V_MPEGH/ISO/HEVC
Duration : 1 h 31 min
Bit rate : 2 935 kb/s
Width : 1 920 pixels
Height : 1 040 pixels
Display aspect ratio : 1.85:1
Frame rate mode : Constant
Frame rate : 23.976 (24000/1001) FPS
Color space : YUV
Chroma subsampling : 4:2:0
Bit depth : 10 bits
Bits/(Pixel*Frame) : 0.061
Stream size : 1.88 GiB (86%)
Default : Yes
Forced : No
Color range : Limited
Color primaries : BT.709
Transfer characteristics : BT.709
Matrix coefficients : BT.709

Audio
ID : 2
Format : AC-3
Format/Info : Audio Coding 3
Format settings, Endianness : Big
Codec ID : A_AC3
Duration : 1 h 31 min
Bit rate mode : Constant
Bit rate : 448 kb/s
Channel(s) : 6 channels
Channel positions : Front: L C R, Side: L R, LFE
Sampling rate : 48.0 kHz
Frame rate : 31.250 FPS (1536 SPF)
Bit depth : 16 bits
Compression mode : Lossy
Stream size : 294 MiB (13%)
Language : English
Service kind : Complete Main
Default : Yes
Forced : No

Text #1
ID : 3
Format : VobSub
Codec ID : S_VOBSUB
Codec ID/Info : Picture based subtitle format used on DVDs
Duration : 1 h 30 min
Bit rate : 5 152 b/s
Count of elements : 647
Stream size : 3.34 MiB (0%)
Language : English
Default : No
Forced : No

Text #2
ID : 4
Format : VobSub
Codec ID : S_VOBSUB
Codec ID/Info : Picture based subtitle format used on DVDs
Duration : 1 h 29 min
Bit rate : 12.2 kb/s
Count of elements : 1034
Stream size : 7.78 MiB (0%)
Language : English
Default : No
Forced : No

Menu
00:00:00.000 : en:(01)00:00:00:000
00:02:13.967 : en:(02)00:02:13:967
00:03:15.445 : en:(03)00:03:15:445
00:05:32.790 : en:(04)00:05:32:790
00:08:15.077 : en:(05)00:08:15:077
00:11:25.351 : en:(06)00:11:25:351
00:13:22.092 : en:(07)00:13:22:092
00:16:34.702 : en:(08)00:16:34:702
00:19:15.779 : en:(09)00:19:15:779
00:21:53.562 : en:(10)00:21:53:562
00:26:56.489 : en:(11)00:26:56:489
00:29:01.406 : en:(12)00:29:01:406
00:32:46.130 : en:(13)00:32:46:130
00:35:50.982 : en:(14)00:35:50:982
00:38:11.163 : en:(15)00:38:11:163
00:45:26.306 : en:(16)00:45:26:306
00:50:42.080 : en:(17)00:50:42:080
00:55:12.976 : en:(18)00:55:12:976
00:57:59.434 : en:(19)00:57:59:434
01:00:41.596 : en:(20)01:00:41:596
01:06:12.468 : en:(21)01:06:12:468
01:08:25.643 : en:(22)01:08:25:643
01:11:49.054 : en:(23)01:11:49:054
01:14:26.128 : en:(24)01:14:26:128
01:19:23.425 : en:(25)01:19:23:425
01:21:23.378 : en:(26)01:21:23:378
01:26:12.583 : en:(27)01:26:12:583
01:28:47.071 : en:(28)01:28:47:071
01:31:49.712 : en:(29)01:31:49:712





Commando (1985)


Commando (1985)


Commando (1985)


Commando (1985)


Commando (1985)