Concussion (2015)

Posted By: JohnSmith
Concussion (2015)

Concussion (2015)
BDRip | MKV / AVC@550 kb/s | 720x302 | 2h 2mn | 577 MB | English: AAC, 103 kb/s (2 ch)
BRRip | MKV / AVC@1500 kb/s | 720x304 | 2h 2mn | 1.67 GB | English: AC3, 448 kb/s (6 ch)
BDRip 720p | MKV / AVC@4859 kb/s | 1280x536 | 2h 2mn | 5.46 GB | English: DTS, 1509 kb/s (6 ch)
BDRip 1080p | MKV / AVC@8684 kb/s | 1920x808 | 2h 2mn | 8.75 GB | English: DTS, 1509 kb/s (6 ch)
BRRip 720p | MKV / HEVC@1777 kb/s | 1280x536 | 2h 2mn | 2.12 GB | English: AC3, 640 kb/s (6 ch) | Subtiltes: English
Genre: Drama | Sport

Will Smith stars in Concussion, a dramatic thriller based on the incredible true David vs. Goliath story of American immigrant Dr. Bennet Omalu, the brilliant forensic neuropathologist who made the first discovery of CTE, a football-related brain trauma, in a pro player and fought for the truth to be known. Omalu's emotional quest puts him at dangerous odds with one of the most powerful institutions in the world.

IMDB - Nominated for 1 Golden Globe. Another 4 wins & 11 nominations.



General
Unique ID : 234405404677339691428530145582260704034 (0xB058D6BB8F362F35BD3556E9A5F45322)
Complete name : C:\Concussion.2015.BDRip.x264-DRONES.mkv
Format : Matroska
Format version : Version 4 / Version 2
File size : 577 MiB
Duration : 2h 2mn
Overall bit rate : 657 Kbps
Encoded date : UTC 2016-03-08 19:33:27
Writing application : mkvmerge v8.3.0 ('Over the Horizon') 64bit
Writing library : libebml v1.3.1 + libmatroska v1.4.2
DURATION : 02:02:49.408000000
NUMBER_OF_FRAMES : 345441
NUMBER_OF_BYTES : 95547371
_STATISTICS_WRITING_APP : mkvmerge v8.3.0 ('Over the Horizon') 64bit
_STATISTICS_WRITING_DATE_UT : 2016-03-08 19:33:27
_STATISTICS_TAGS : BPS DURATION NUMBER_OF_FRAMES NUMBER_OF_BYTES

Video
ID : 1
Format : AVC
Format/Info : Advanced Video Codec
Format profile : High@L3.1
Format settings, CABAC : Yes
Format settings, ReFrames : 5 frames
Codec ID : V_MPEG4/ISO/AVC
Duration : 2h 2mn
Width : 720 pixels
Height : 302 pixels
Display aspect ratio : 2.40:1
Frame rate mode : Constant
Frame rate : 23.976 fps
Color space : YUV
Chroma subsampling : 4:2:0
Bit depth : 8 bits
Scan type : Progressive
Title : X264
Writing library : x264 core 148 r2638 7599210
Encoding settings : cabac=1 / ref=5 / deblock=1:-2:-2 / analyse=0x3:0x113 / me=umh / subme=8 / psy=1 / psy_rd=0.90:0.00 / mixed_ref=1 / me_range=16 / chroma_me=1 / trellis=1 / 8x8dct=1 / cqm=0 / deadzone=21,11 / fast_pskip=1 / chroma_qp_offset=-2 / threads=9 / lookahead_threads=1 / sliced_threads=0 / nr=0 / decimate=1 / interlaced=0 / bluray_compat=0 / constrained_intra=0 / bframes=3 / b_pyramid=2 / b_adapt=2 / b_bias=0 / direct=3 / weightb=1 / open_gop=0 / weightp=2 / keyint=250 / keyint_min=23 / scenecut=40 / intra_refresh=0 / rc_lookahead=50 / rc=crf / mbtree=1 / crf=19.0 / qcomp=0.60 / qpmin=0 / qpmax=69 / qpstep=4 / ip_ratio=1.40 / aq=1:1.00
Language : English
Default : Yes
Forced : No
Color range : Limited
Matrix coefficients : BT.709
DURATION : 02:02:49.332000000
NUMBER_OF_FRAMES : 176687
NUMBER_OF_BYTES : 507260526
_STATISTICS_WRITING_APP : mkvmerge v8.3.0 ('Over the Horizon') 64bit
_STATISTICS_WRITING_DATE_UT : 2016-03-08 19:33:27
_STATISTICS_TAGS : BPS DURATION NUMBER_OF_FRAMES NUMBER_OF_BYTES

Audio
ID : 2
Format : AAC
Format/Info : Advanced Audio Codec
Format profile : LC
Codec ID : A_AAC
Duration : 2h 2mn
Channel(s) : 2 channels
Channel positions : Front: L R
Sampling rate : 48.0 KHz
Compression mode : Lossy
Language : English
Default : Yes
Forced : No

Menu
00:00:00.000 : en:00:00:00.000
00:07:26.696 : en:00:07:26.696
00:14:41.631 : en:00:14:41.631
00:21:48.098 : en:00:21:48.098
00:29:36.566 : en:00:29:36.566
00:37:42.927 : en:00:37:42.927
00:43:44.539 : en:00:43:44.539
00:51:30.713 : en:00:51:30.713
00:59:35.447 : en:00:59:35.447
01:06:58.264 : en:01:06:58.264
01:13:07.508 : en:01:13:07.508
01:22:18.308 : en:01:22:18.308
01:30:34.721 : en:01:30:34.721
01:38:15.098 : en:01:38:15.098
01:46:46.942 : en:01:46:46.942
01:53:34.808 : en:01:53:34.808



General
Unique ID : 94686631222134041939663142530372506887 (0x473BFB59E43B78E648EA308907BA9507)
Complete name : C:\Concussion.2015.BRRip.mkv
Format : Matroska
Format version : Version 2
File size : 1.67 GiB
Duration : 2h 2mn
Overall bit rate : 1 951 Kbps
Encoded date : UTC
Writing application : HandBrake 0.10.2 2015060900
Writing library : Lavf55.12.0

Video
ID : 1
Format : AVC
Format/Info : Advanced Video Codec
Format profile : Baseline@L3.1
Format settings, CABAC : No
Format settings, ReFrames : 1 frame
Codec ID : V_MPEG4/ISO/AVC
Duration : 2h 2mn
Bit rate : 1 500 Kbps
Width : 720 pixels
Height : 304 pixels
Display aspect ratio : 2.35:1
Frame rate mode : Constant
Frame rate : 23.976 fps
Color space : YUV
Chroma subsampling : 4:2:0
Bit depth : 8 bits
Scan type : Progressive
Bits/(Pixel*Frame) : 0.286
Stream size : 1.26 GiB (75%)
Writing library : x264 core 142 r2479 dd79a61
Encoding settings : cabac=0 / ref=1 / deblock=1:0:0 / analyse=0x1:0x111 / me=hex / subme=2 / psy=1 / psy_rd=1.00:0.00 / mixed_ref=0 / me_range=16 / chroma_me=1 / trellis=0 / 8x8dct=0 / cqm=0 / deadzone=21,11 / fast_pskip=1 / chroma_qp_offset=0 / threads=12 / lookahead_threads=2 / sliced_threads=0 / nr=0 / decimate=1 / interlaced=0 / bluray_compat=0 / constrained_intra=0 / bframes=0 / weightp=0 / keyint=240 / keyint_min=24 / scenecut=40 / intra_refresh=0 / rc_lookahead=10 / rc=2pass / mbtree=1 / bitrate=1500 / ratetol=1.0 / qcomp=0.60 / qpmin=0 / qpmax=69 / qpstep=4 / cplxblur=20.0 / qblur=0.5 / vbv_maxrate=14000 / vbv_bufsize=14000 / nal_hrd=none / filler=0 / ip_ratio=1.40 / aq=1:1.00
Default : Yes
Forced : No
Color range : Limited
Color primaries : BT.709
Transfer characteristics : BT.709
Matrix coefficients : BT.709

Audio
ID : 2
Format : AC-3
Format/Info : Audio Coding 3
Mode extension : CM (complete main)
Format settings, Endianness : Big
Codec ID : A_AC3
Duration : 2h 2mn
Bit rate mode : Constant
Bit rate : 448 Kbps
Channel(s) : 6 channels
Channel positions : Front: L C R, Side: L R, LFE
Sampling rate : 48.0 KHz
Compression mode : Lossy
Delay relative to video : -5ms
Stream size : 394 MiB (23%)
Title : Surround
Language : English
Default : Yes
Forced : No



General
Unique ID : 252995091027060634719337060648197604990 (0xBE55150862A102E6B542857D19B0C67E)
Complete name : D:\Downloads\Concussion.2015.720p.BluRay.x264-DRONES[rarbg]\Concussion.2015.720p.BluRay.x264-DRONES.mkv
Format : Matroska
Format version : Version 4 / Version 2
File size : 5.46 GiB
Duration : 2h 2mn
Overall bit rate : 6 370 Kbps
Encoded date : UTC 2016-03-08 20:25:22
Writing application : mkvmerge v8.3.0 ('Over the Horizon') 64bit
Writing library : libebml v1.3.1 + libmatroska v1.4.2
DURATION : 02:02:49.366000000
NUMBER_OF_FRAMES : 690878
NUMBER_OF_BYTES : 1390046536
_STATISTICS_WRITING_APP : mkvmerge v8.3.0 ('Over the Horizon') 64bit
_STATISTICS_WRITING_DATE_UT : 2016-03-08 20:25:22
_STATISTICS_TAGS : BPS DURATION NUMBER_OF_FRAMES NUMBER_OF_BYTES

Video
ID : 1
Format : AVC
Format/Info : Advanced Video Codec
Format profile : High@L4.1
Format settings, CABAC : Yes
Format settings, ReFrames : 5 frames
Codec ID : V_MPEG4/ISO/AVC
Duration : 2h 2mn
Bit rate : 4 859 Kbps
Width : 1 280 pixels
Height : 536 pixels
Display aspect ratio : 2.40:1
Frame rate mode : Constant
Frame rate : 23.976 fps
Color space : YUV
Chroma subsampling : 4:2:0
Bit depth : 8 bits
Scan type : Progressive
Bits/(Pixel*Frame) : 0.295
Stream size : 4.06 GiB (74%)
Writing library : x264 core 148 r2665 a01e339
Encoding settings : cabac=1 / ref=5 / deblock=1:0:0 / analyse=0x3:0x133 / me=umh / subme=7 / psy=1 / psy_rd=1.00:0.00 / mixed_ref=1 / me_range=16 / chroma_me=1 / trellis=1 / 8x8dct=1 / cqm=0 / deadzone=21,11 / fast_pskip=0 / chroma_qp_offset=-2 / threads=17 / lookahead_threads=2 / sliced_threads=0 / nr=0 / decimate=1 / interlaced=0 / bluray_compat=0 / constrained_intra=0 / bframes=3 / b_pyramid=2 / b_adapt=1 / b_bias=0 / direct=1 / weightb=1 / open_gop=0 / weightp=2 / keyint=250 / keyint_min=23 / scenecut=40 / intra_refresh=0 / rc_lookahead=40 / rc=2pass / mbtree=1 / bitrate=4859 / ratetol=1.0 / qcomp=0.60 / qpmin=0 / qpmax=69 / qpstep=4 / cplxblur=20.0 / qblur=0.5 / ip_ratio=1.40 / aq=1:1.00
Language : English
Default : Yes
Forced : No
DURATION : 02:02:49.332000000
NUMBER_OF_FRAMES : 176687
NUMBER_OF_BYTES : 4475409055
_STATISTICS_WRITING_APP : mkvmerge v8.3.0 ('Over the Horizon') 64bit
_STATISTICS_WRITING_DATE_UT : 2016-03-08 20:25:22
_STATISTICS_TAGS : BPS DURATION NUMBER_OF_FRAMES NUMBER_OF_BYTES

Audio
ID : 2
Format : DTS
Format/Info : Digital Theater Systems
Mode : 16
Format settings, Endianness : Big
Codec ID : A_DTS
Duration : 2h 2mn
Bit rate mode : Constant
Bit rate : 1 509 Kbps
Channel(s) : 6 channels
Channel positions : Front: L C R, Side: L R, LFE
Sampling rate : 48.0 KHz
Bit depth : 24 bits
Compression mode : Lossy
Stream size : 1.29 GiB (24%)
Language : English
Default : Yes
Forced : No

Menu
00:00:00.000 : en:00:00:00.000
00:07:26.696 : en:00:07:26.696
00:14:41.631 : en:00:14:41.631
00:21:48.098 : en:00:21:48.098
00:29:36.566 : en:00:29:36.566
00:37:42.927 : en:00:37:42.927
00:43:44.539 : en:00:43:44.539
00:51:30.713 : en:00:51:30.713
00:59:35.447 : en:00:59:35.447
01:06:58.264 : en:01:06:58.264
01:13:07.508 : en:01:13:07.508
01:22:18.308 : en:01:22:18.308
01:30:34.721 : en:01:30:34.721
01:38:15.098 : en:01:38:15.098
01:46:46.942 : en:01:46:46.942
01:53:34.808 : en:01:53:34.808



General
Unique ID : 250356380544117917664310817499871592006 (0xBC58E28FBE025BF19976D7E5C1523E46)
Complete name : C:\Concussion.2015.1080p.BluRay.x264-DRONES.mkv
Format : Matroska
Format version : Version 4 / Version 2
File size : 8.75 GiB
Duration : 2h 2mn
Overall bit rate : 10.2 Mbps
Encoded date : UTC 2016-03-08 22:09:54
Writing application : mkvmerge v8.3.0 ('Over the Horizon') 64bit
Writing library : libebml v1.3.1 + libmatroska v1.4.2
DURATION : 02:02:49.366000000
NUMBER_OF_FRAMES : 690878
NUMBER_OF_BYTES : 1390046536
_STATISTICS_WRITING_APP : mkvmerge v8.3.0 ('Over the Horizon') 64bit
_STATISTICS_WRITING_DATE_UT : 2016-03-08 22:09:54
_STATISTICS_TAGS : BPS DURATION NUMBER_OF_FRAMES NUMBER_OF_BYTES

Video
ID : 1
Format : AVC
Format/Info : Advanced Video Codec
Format profile : High@L4.1
Format settings, CABAC : Yes
Format settings, ReFrames : 5 frames
Codec ID : V_MPEG4/ISO/AVC
Duration : 2h 2mn
Bit rate : 8 684 Kbps
Width : 1 920 pixels
Height : 808 pixels
Display aspect ratio : 2.40:1
Frame rate mode : Constant
Frame rate : 23.976 fps
Color space : YUV
Chroma subsampling : 4:2:0
Bit depth : 8 bits
Scan type : Progressive
Bits/(Pixel*Frame) : 0.233
Stream size : 7.28 GiB (83%)
Writing library : x264 core 148 r2665 a01e339
Encoding settings : cabac=1 / ref=5 / deblock=1:0:0 / analyse=0x3:0x133 / me=umh / subme=7 / psy=1 / psy_rd=1.00:0.00 / mixed_ref=1 / me_range=16 / chroma_me=1 / trellis=1 / 8x8dct=1 / cqm=0 / deadzone=21,11 / fast_pskip=0 / chroma_qp_offset=-2 / threads=18 / lookahead_threads=3 / sliced_threads=0 / nr=0 / decimate=1 / interlaced=0 / bluray_compat=0 / constrained_intra=0 / bframes=3 / b_pyramid=2 / b_adapt=1 / b_bias=0 / direct=1 / weightb=1 / open_gop=0 / weightp=2 / keyint=250 / keyint_min=23 / scenecut=40 / intra_refresh=0 / rc_lookahead=40 / rc=2pass / mbtree=1 / bitrate=8684 / ratetol=1.0 / qcomp=0.60 / qpmin=0 / qpmax=69 / qpstep=4 / cplxblur=20.0 / qblur=0.5 / ip_ratio=1.40 / aq=1:1.00
Language : English
Default : Yes
Forced : No
DURATION : 02:02:49.332000000
NUMBER_OF_FRAMES : 176687
NUMBER_OF_BYTES : 7997868479
_STATISTICS_WRITING_APP : mkvmerge v8.3.0 ('Over the Horizon') 64bit
_STATISTICS_WRITING_DATE_UT : 2016-03-08 22:09:54
_STATISTICS_TAGS : BPS DURATION NUMBER_OF_FRAMES NUMBER_OF_BYTES

Audio
ID : 2
Format : DTS
Format/Info : Digital Theater Systems
Mode : 16
Format settings, Endianness : Big
Codec ID : A_DTS
Duration : 2h 2mn
Bit rate mode : Constant
Bit rate : 1 509 Kbps
Channel(s) : 6 channels
Channel positions : Front: L C R, Side: L R, LFE
Sampling rate : 48.0 KHz
Bit depth : 24 bits
Compression mode : Lossy
Stream size : 1.29 GiB (15%)
Language : English
Default : Yes
Forced : No

Menu
00:00:00.000 : en:00:00:00.000
00:07:26.696 : en:00:07:26.696
00:14:41.631 : en:00:14:41.631
00:21:48.098 : en:00:21:48.098
00:29:36.566 : en:00:29:36.566
00:37:42.927 : en:00:37:42.927
00:43:44.539 : en:00:43:44.539
00:51:30.713 : en:00:51:30.713
00:59:35.447 : en:00:59:35.447
01:06:58.264 : en:01:06:58.264
01:13:07.508 : en:01:13:07.508
01:22:18.308 : en:01:22:18.308
01:30:34.721 : en:01:30:34.721
01:38:15.098 : en:01:38:15.098
01:46:46.942 : en:01:46:46.942
01:53:34.808 : en:01:53:34.808



General
Unique ID : 201768123514635898759359140509948248044 (0x97CB2088F7CF784B96E447F539A6FFEC)
Complete name : D:\Downloads\Concussion.2015.720p.BRRiP.HEVC.x265.AC3-MAJESTiC\Concussion.2015.720p.BRRiP.HEVC.x265.AC3-MAJESTiC.mkv
Format : Matroska
Format version : Version 4 / Version 2
File size : 2.12 GiB
Duration : 2h 2mn
Overall bit rate : 2 466 Kbps
Encoded date : UTC 2016-03-09 15:21:00
Writing application : mkvmerge v8.6.1 ('Flying') 64bit
Writing library : libebml v1.3.3 + libmatroska v1.4.4
DURATION : 02:00:42.390000000
NUMBER_OF_FRAMES : 1467
NUMBER_OF_BYTES : 111502
_STATISTICS_WRITING_APP : mkvmerge v8.6.1 ('Flying') 64bit
_STATISTICS_WRITING_DATE_UT : 2016-03-09 15:21:00
_STATISTICS_TAGS : BPS DURATION NUMBER_OF_FRAMES NUMBER_OF_BYTES

Video
ID : 1
Format : HEVC
Format/Info : High Efficiency Video Coding
Format profile : Main@L3.1@Main
Codec ID : V_MPEGH/ISO/HEVC
Duration : 2h 2mn
Bit rate : 1 777 Kbps
Width : 1 280 pixels
Height : 536 pixels
Display aspect ratio : 2.40:1
Frame rate mode : Constant
Frame rate : 23.976 fps
Color space : YUV
Chroma subsampling : 4:2:0
Bit depth : 8 bits
Bits/(Pixel*Frame) : 0.108
Stream size : 1.52 GiB (72%)
Writing library : x265 1.8+188-1471e4e433ccccf7:[Windows][GCC 5.3.0][32 bit] 8bit: KG7x [x265.ru]
Encoding settings : wpp / ctu=32 / min-cu-size=8 / max-tu-size=32 / tu-intra-depth=1 / tu-inter-depth=1 / me=1 / subme=2 / merange=57 / no-rect / no-amp / max-merge=2 / temporal-mvp / early-skip / rdpenalty=0 / no-tskip / no-tskip-fast / strong-intra-smoothing / no-lossless / no-cu-lossless / no-constrained-intra / no-fast-intra / open-gop / no-temporal-layers / interlace=0 / keyint=250 / min-keyint=23 / scenecut=40 / rc-lookahead=35 / lookahead-slices=0 / bframes=6 / bframe-bias=0 / b-adapt=2 / ref=6 / limit-refs=3 / no-limit-modes / weightp / no-weightb / aq-mode=1 / qg-size=32 / aq-strength=1.00 / cbqpoffs=0 / crqpoffs=0 / rd=3 / psy-rd=1.50 / rdoq-level=0 / psy-rdoq=0.00 / signhide / deblock / sao / no-sao-non-deblock / b-pyramid / cutree / no-intra-refresh / rc=2 / pass / bitrate=1823 / qcomp=0.60 / qpmin=0 / qpmax=51 / qpstep=4 / cplxblur=20.0 / qblur=0.5 / ipratio=1.40 / pbratio=1.30
Language : English
Default : Yes
Forced : No

Audio
ID : 2
Format : AC-3
Format/Info : Audio Coding 3
Mode extension : CM (complete main)
Format settings, Endianness : Big
Codec ID : A_AC3
Duration : 2h 2mn
Bit rate mode : Constant
Bit rate : 640 Kbps
Channel(s) : 6 channels
Channel positions : Front: L C R, Side: L R, LFE
Sampling rate : 48.0 KHz
Compression mode : Lossy
Stream size : 562 MiB (26%)
Language : English
Default : Yes
Forced : No

Text #1
ID : 3
Format : UTF-8
Codec ID : S_TEXT/UTF8
Codec ID/Info : UTF-8 Plain Text
Title : SDH SRT
Language : English
Default : No
Forced : No

Text #2
ID : 4
Format : SSA
Codec ID : S_TEXT/SSA
Codec ID/Info : Sub Station Alpha
Compression mode : Lossless
Title : SDH SSA
Language : English
Default : No
Forced : No

Text #3
ID : 5
Format : UTF-8
Codec ID : S_TEXT/UTF8
Codec ID/Info : UTF-8 Plain Text
Title : SRT
Language : English
Default : No
Forced : No

Text #4
ID : 6
Format : SSA
Codec ID : S_TEXT/SSA
Codec ID/Info : Sub Station Alpha
Compression mode : Lossless
Title : SSA
Language : English
Default : No
Forced : No

Menu
00:00:00.000 : en:00:00:00.000
00:07:26.696 : en:00:07:26.696
00:14:41.631 : en:00:14:41.631
00:21:48.098 : en:00:21:48.098
00:29:36.566 : en:00:29:36.566
00:37:42.927 : en:00:37:42.927
00:43:44.539 : en:00:43:44.539
00:51:30.713 : en:00:51:30.713
00:59:35.447 : en:00:59:35.447
01:06:58.264 : en:01:06:58.264
01:13:07.508 : en:01:13:07.508
01:22:18.308 : en:01:22:18.308
01:30:34.721 : en:01:30:34.721
01:38:15.098 : en:01:38:15.098
01:46:46.942 : en:01:46:46.942
01:53:34.808 : en:01:53:34.808


Screenshots BDRip

Concussion (2015)

Concussion (2015)

Concussion (2015)


Screenshots BRRip

Concussion (2015)

Concussion (2015)

Concussion (2015)


Screenshots BDRip 720p

Concussion (2015)

Concussion (2015)

Concussion (2015)


Screenshots BDRip 1080p

Concussion (2015)

Concussion (2015)

Concussion (2015)


Screenshots BRRip 720p

Concussion (2015)

Concussion (2015)

Concussion (2015)

BRRip
http://nitroflare.com/view/A3E7F58BC8CA178/Concussion.2015.BRRip.part1.rar
http://nitroflare.com/view/2906C4D6F6894B6/Concussion.2015.BRRip.part2.rar
http://nitroflare.com/view/69DEB76E46E780E/Concussion.2015.BRRip.part3.rar
BDRip 720p
http://nitroflare.com/view/8CB995DC61C10F4/Concussion.2015.720p.BluRay.x264-DRONES.part1.rar
http://nitroflare.com/view/AFC099451867C22/Concussion.2015.720p.BluRay.x264-DRONES.part2.rar
http://nitroflare.com/view/C23F09C5162371F/Concussion.2015.720p.BluRay.x264-DRONES.part3.rar
http://nitroflare.com/view/80DD1ABC51BA080/Concussion.2015.720p.BluRay.x264-DRONES.part4.rar
http://nitroflare.com/view/6DE9ECF14961EE3/Concussion.2015.720p.BluRay.x264-DRONES.part5.rar
http://nitroflare.com/view/7B3307115EC203F/Concussion.2015.720p.BluRay.x264-DRONES.part6.rar
BDRip 1080p
http://nitroflare.com/view/C8C5A90811DAF73/Concussion.2015.1080p.BluRay.x264-DRONES.part01.rar
http://nitroflare.com/view/F2CBA5F8C441B22/Concussion.2015.1080p.BluRay.x264-DRONES.part02.rar
http://nitroflare.com/view/F17A3D958B744F9/Concussion.2015.1080p.BluRay.x264-DRONES.part03.rar
http://nitroflare.com/view/18F951D2F460820/Concussion.2015.1080p.BluRay.x264-DRONES.part04.rar
http://nitroflare.com/view/D260B0902CDF07B/Concussion.2015.1080p.BluRay.x264-DRONES.part05.rar
http://nitroflare.com/view/7EBB3EC3019AC3D/Concussion.2015.1080p.BluRay.x264-DRONES.part06.rar
http://nitroflare.com/view/67BB62CB0C77A29/Concussion.2015.1080p.BluRay.x264-DRONES.part07.rar
http://nitroflare.com/view/4526E53AD6E07F1/Concussion.2015.1080p.BluRay.x264-DRONES.part08.rar
http://nitroflare.com/view/71221AA80160FD1/Concussion.2015.1080p.BluRay.x264-DRONES.part09.rar
BRRip 720p
http://nitroflare.com/view/4356F03F0B1BBCD/Concussion.2015.720p.BRRiP.HEVC.x265.AC3-MAJESTiC.part1.rar
http://nitroflare.com/view/61CB71EA34A1DDB/Concussion.2015.720p.BRRiP.HEVC.x265.AC3-MAJESTiC.part2.rar
http://nitroflare.com/view/DFD63A3D8D86385/Concussion.2015.720p.BRRiP.HEVC.x265.AC3-MAJESTiC.part3.rar
http://nitroflare.com/view/FC5D5AAEB678250/Concussion.2015.720p.BRRiP.HEVC.x265.AC3-MAJESTiC.part4.rar