Tags
Language
Tags

WGBH - Charles Munch conducts Berlioz, Debussy, Ravel - Boston Symphony Orchestra (1962)

Posted By: Tutorial
SD / DVDRip
WGBH - Charles Munch conducts Berlioz, Debussy, Ravel - Boston Symphony Orchestra (1962)

WGBH - Charles Munch conducts Berlioz, Debussy, Ravel - Boston Symphony Orchestra (1962)
DVDRip | 640 x 480 | .MKV/AVC @ 1400 Kbps | 1 h 36 min | 1.12 GB
Audio: English AAC 265 Kbps, 2 ch | Subs: None
Genre: Documentary

Charles Munch and the Boston Symphony Orchestra perform works by Berlioz, Deubssy, and Ravel. A WGBH live broadcast from the Sanders Theater, Harvard University on 17 April 1962.

General
Unique ID : 245091503073894864141032237602989882869 (0xB862E80FA12E9E78105FEA088EB33DF5)
Complete name : Charles.Munch.Conducts.Berlioz.Debussy.Ravel.Boston.Symphony.Orchestra.1962.mkv
Format : Matroska
Format version : Version 4 / Version 2
File size : 1.12 GiB
Duration : 1 h 36 min
Overall bit rate : 1 666 kb/s
Movie name : Charles Munch - Boston Symphony Orchestra
Encoded date : UTC 2022-01-08 21:49:38
Writing application : mkvmerge v64.0.0 ('Willows') 64-bit
Writing library : libebml v1.4.2 + libmatroska v1.6.4 / Lavf58.78.100

Video
ID : 1
ID in the original source medium : 224 (0xE0)
Format : AVC
Format/Info : Advanced Video Codec
Format profile : Main@L3.1
Format settings : CABAC / 4 Ref Frames
Format settings, CABAC : Yes
Format settings, RefFrames : 4 frames
Codec ID : V_MPEG4/ISO/AVC
Duration : 1 h 36 min
Bit rate : 1 400 kb/s
Width : 640 pixels
Height : 480 pixels
Display aspect ratio : 4:3
Frame rate mode : Constant
Frame rate : 29.970 (30000/1001) FPS
Color space : YUV
Chroma subsampling : 4:2:0
Bit depth : 8 bits
Scan type : Progressive
Bits/(Pixel*Frame) : 0.152
Stream size : 964 MiB (84%)
Writing library : x264 core 161 r3053 c347e7a
Encoding settings : cabac=1 / ref=3 / deblock=1:0:0 / analyse=0x1:0x111 / me=hex / subme=7 / psy=1 / psy_rd=1.00:0.00 / mixed_ref=1 / me_range=16 / chroma_me=1 / trellis=1 / 8x8dct=0 / cqm=0 / deadzone=21,11 / fast_pskip=1 / chroma_qp_offset=-2 / threads=15 / lookahead_threads=2 / sliced_threads=0 / nr=0 / decimate=1 / interlaced=0 / bluray_compat=0 / constrained_intra=0 / bframes=6 / b_pyramid=2 / b_adapt=1 / b_bias=0 / direct=1 / weightb=1 / open_gop=0 / weightp=2 / keyint=300 / keyint_min=29 / scenecut=40 / intra_refresh=0 / rc_lookahead=40 / rc=crf / mbtree=1 / crf=21.0 / qcomp=0.60 / qpmin=0 / qpmax=69 / qpstep=4 / ip_ratio=1.40 / aq=1:1.00
Language : English
Default : Yes
Forced : No
Color range : Limited
Color primaries : BT.601 NTSC
Transfer characteristics : BT.601
Matrix coefficients : BT.601
Original source medium : DVD-Video

Audio
ID : 2
Format : AAC
Format/Info : Advanced Audio Codec
Format profile : LC
Codec ID : A_AAC-2
Duration : 1 h 36 min
Bit rate : 265 kb/s
Channel(s) : 2 channels
Channel positions : Front: L R
Sampling rate : 48.0 kHz
Frame rate : 46.875 FPS (1024 SPF)
Compression mode : Lossy
Stream size : 182 MiB (16%)
Language : English
Default : Yes
Forced : No

Menu
00:00:00.000 : :Introduction
00:04:08.114 : :Symphonie Fantastique - 1. Reveries, passions
00:18:15.694 : :Symphonie Fantastique - 2. A Ball
00:24:22.227 : :Symphonie Fantastique - 3. Scene in the Fields
00:37:37.755 : :Symphonie Fantastique - 4. March to the Scaffold
00:41:36.327 : :Symphonie Fantastique - 5. Dream of a Witches' Sabbath
00:53:29.873 : :La Mer - 1. From dawn to noon on the sea
01:03:08.518 : :La Mer - 2. Play of the waves
01:09:55.391 : :La Mer - Dialogue of the wind and the sea
01:18:57.599 : :Daphnis et Chloe - 1. Lever du jour
01:24:44.612 : :Daphnis et Chloe - 2. Pantomime
01:30:59.387 : :Daphnis et Chloe - 3. Danse generale
Screenshots 720p WEB-DL

WGBH - Charles Munch conducts Berlioz, Debussy, Ravel - Boston Symphony Orchestra (1962)

WGBH - Charles Munch conducts Berlioz, Debussy, Ravel - Boston Symphony Orchestra (1962)

WGBH - Charles Munch conducts Berlioz, Debussy, Ravel - Boston Symphony Orchestra (1962)

Welcome to my blog - daily update!