Tags
Language
Tags

BBC Storyville - Congo: White King, Red Rubber, Black Death (2004)

Posted By: Tutorial
SD / DVDRip
BBC Storyville - Congo: White King, Red Rubber, Black Death (2004)

BBC Storyville - Congo: White King, Red Rubber, Black Death (2004)
DVDRip | 720 x 400 | .MKV/AVC @ 1848 Kbps | 1h 30mn | English AC-3 448 kbps, 2 channels | 1.45 GB
Genre: Documentary

Peter Bate's "Congo: White King, Red Rubber, Black Death" is a documentary that recounts the genocide perpetrated against the people of Congo by the colonial occupation under the control of Belgium's King Leopold II.
After gaining title to the land through fraudulent treaties with the African chiefs and strong-arm diplomacy among the European powers carving up Africa, Leopold II ran the so-called Congo Free State as a private fiefdom. While claiming to bring "civilization" to the Congolese, the Belgian monarch's goals were anything but benevolent.
A latecomer to colonialism, King Leopold II of Belgium searched the world for a satellite to call his very own, finally finding his prey in the Congo region of Africa. Hiding his greed behind the twinned fictions of charity and philanthropy, the king entered the Congo with the help of the explorer Henry Morton Stanley and quickly strong-armed tribal chiefs into signing away their future. Soon after, representatives from Europe and the United States delivered the region –renamed the Congo Free State, later Zaire and now the Democratic Republic of Congo –into Leopold's rapacious care.
This true, astonishing story of what King Leopold II did in the Congo was forgotten for over 50 years. "Congo:White King, Red Rubber, Black Death" describes how King Leopold II of Belgium turned Congo into its private colony between 1885 and 1908. Under his control, Congo became a gulag labor camp of shocking brutality. Leopold posed as the protector of Africans fleeing Arab slave-traders but, in reality, he carved out an empire based on terror to harvest rubber. Families were held as hostages, starving to death if the men failed to produce enough wild rubber. Children's hands were chopped off as punishment for late deliveries.
The African people were forced into slave labor to maintain the cultivation and export of the region's rubber harvest. Those who fell behind in their labor quotas were tortured, mutilated and murdered; the wives of the laborers were frequently held prisoner and subject to rape and torture, and entire villages that rebelled against the enslavement were burned to the ground.
From the mid-1880s and lasting for nearly 40 years, an estimated 10 million Congolese were killed under the reign of Leopold II. The madness only came to an end thanks to the efforts of British journalist and humanitarian E.D. Morel, who exposed the human rights abuses in Congo and published photographs of the mutilated Congolese. In 1908, the Belgian government officially annexed Congo; Leopold II died the following year and his funeral procession was booed by the Belgian people, who grew ashamed of the outrages engineered in the king's name.
"Congo: White King, Red Rubber, Black Death" fills an important void in the history of Europe's disastrous encounters with Africa. Using a combination of interviews with contemporary historians and the recitation of the letters and investigative articles from the late 19th and early 20th century, the film outlines a human rights catastrophe which rivals the genocides created by the likes of Stalin, Hitler and Pol Pot.

General
Unique ID : 224307856862069051049244738347802059995 (0xA8C01F3032C721388A69FE6F04AC64DB)
Complete name : BBC.Storyville.Congo.White.King.Red.Rubber.Black.Death.mkv
Format : Matroska
Format version : Version 4 / Version 2
File size : 1.45 GiB
Duration : 1h 30mn
Overall bit rate : 2 298 Kbps
Movie name : BBC.Storyville.Congo.White.King.Red.Rubber.Black.Death.MVGroup.org.mkv
Encoded date : UTC 2016-04-14 14:45:48
Writing application : mkvmerge v9.0.1 ('Obstacles') 64bit
Writing library : libebml v1.3.3 + libmatroska v1.4.4

Video
ID : 1
Format : AVC
Format/Info : Advanced Video Codec
Format profile : High@L4.0
Format settings, CABAC : Yes
Format settings, ReFrames : 6 frames
Codec ID : V_MPEG4/ISO/AVC
Duration : 1h 30mn
Bit rate : 1 848 Kbps
Width : 720 pixels
Height : 400 pixels
Display aspect ratio : 16:9
Frame rate : 29.970 fps
Color space : YUV
Chroma subsampling : 4:2:0
Bit depth : 8 bits
Scan type : Progressive
Bits/(Pixel*Frame) : 0.214
BBC Storyville - Congo: White King, Red Rubber, Black Death (2004)


Stream size : 1.14 GiB (79%)
Writing library : x264 core 66 r1092 60f4cd8
Encoding settings : cabac=1 / ref=6 / deblock=1:-1:-1 / analyse=0x3:0x113 / me=umh / subme=7 / psy_rd=1.0:1.0 / mixed_ref=1 / me_range=16 / chroma_me=1 / trellis=2 / 8x8dct=1 / cqm=2 / deadzone=21,11 / chroma_qp_offset=-4 / threads=12 / nr=0 / decimate=1 / mbaff=0 / bframes=6 / b_pyramid=1 / b_adapt=2 / b_bias=0 / direct=3 / wpredb=1 / keyint=250 / keyint_min=25 / scenecut=40(pre) / rc=2pass / bitrate=1848 / ratetol=1.0 / qcomp=0.60 / qpmin=10 / qpmax=51 / qpstep=4 / cplxblur=20.0 / qblur=0.5 / vbv_maxrate=25000 / vbv_bufsize=14000 / ip_ratio=1.40 / pb_ratio=1.30 / aq=1:1.00
Default : Yes
Forced : No

Audio
ID : 2
Format : AC-3
Format/Info : Audio Coding 3
Mode extension : CM (complete main)
Codec ID : A_AC3
Duration : 1h 30mn
Bit rate mode : Constant
Bit rate : 448 Kbps
Channel(s) : 2 channels
Channel positions : Front: L R
Sampling rate : 48.0 KHz
Bit depth : 16 bits
Compression mode : Lossy
Stream size : 289 MiB (19%)
Default : Yes
Forced : No
Screenshots

BBC Storyville - Congo: White King, Red Rubber, Black Death (2004)

BBC Storyville - Congo: White King, Red Rubber, Black Death (2004)

BBC Storyville - Congo: White King, Red Rubber, Black Death (2004)

BBC Storyville - Congo: White King, Red Rubber, Black Death (2004)


BBC Storyville - Congo: White King, Red Rubber, Black Death (2004)