Tags
Language
Tags

National Geographic - Continent 7: Antarctica Series 1 (2017)

Posted By: Tutorial
National Geographic - Continent 7: Antarctica Series 1 (2017)

National Geographic - Continent 7: Antarctica Series 1 (2017)
HDTV | 1280 x 720 | .MP4/AVC @ 3623 Kbps | 6x~46mn | 7.06 GB
Audio: English AAC 160 Kbps, 2 channels | Subs: English
Genre: Documentary, Science

The show will take you on a journey to Antarctica to experience the world's most extreme wilderness, to see the massive undertaking it is to support human life there, and to chronicle the world-changing science being done. Embed with missions on the ice, underneath it, and atop some of its peaks, as scientists and survival experts join forces to fight brutal conditions to help change the world.
Part 1: Storming Antarctica
Six different teams of scientists arrive on the continent after years of planning. The continent is home to the coldest, windiest, driest conditions on the planet, and without Scott Base as their central hub, these teams wouldn't survive. Each team's results could have massive implications to better understanding how climate change is affecting life around the world.

Part 2: Not Fit for Human Life
Scientists deployed to Antarctica are accustomed to frigid temperatures, but few have experienced the condition one storm that is sweeping over Scott Base and the Ross Ice Shelf. Scott Base shuts down all missions and flights to and from western Antarctica have been cancelled; leaving them more isolated from the outside world than ever.

Part 3: Antarctic Aftermath
The Mt. Erebus team has trouble landing at one of their sites and when they do their gear glitches from the cold. Meanwhile, the USS Coast Guard gets stranded from engine failure. Another team struggles to protect their 80,000 drone from a crash landing due to extreme wind. The Ross Ice Shelf Team digs themselves out after enduring a major storm and heads toward their target research spot.

Part 4: Take Your Best Shot
In Antarctica both humans and animals do what it takes to adapt to and survive the harshest climate on earth. Our scientists focus their research in the icy waters to determine how climate change and human interaction have affected the marine ecosystem. Human life in the Antarctic can be put in danger when the technology it relies on fails.

Part 5: Science of Survival
Science in Antarctica will shut down for the winter. Scott Base has plenty of logistics to manage in order to send teams out to finish their missions for the season. The USS Coast Guard crew is challenged by their aging ship as they try to finish cutting a channel in the ice before they escort the ship in. The Mt. Erebus team struggles to salvage as much data as they can before they go home.

Part 6: Race to Escape
As winter approaches, field teams are finishing up their science for the season. It's the last chance to obtain information for their research on the frozen continent. As most people are preparing to leave, a container ship is on its way in to supply food and materials to the skeleton crew that remains during the cold, dark winter months.

More info: IMDB

also You can look my other last: Earth Science

General
Complete name : Continent.7.Antarctica.Series.1.1of6.Storming.Antarctica.mp4
Format : MPEG-4
Format profile : Base Media
Codec ID : isom
File size : 1.24 GiB
Duration : 46mn 59s
Overall bit rate mode : Variable
Overall bit rate : 3 788 Kbps
Encoded date : UTC 2017-03-07 00:14:01
Tagged date : UTC 2017-03-07 00:14:01
Writing application : My MP4Box GUI 0.6.0.6
Video
ID : 1
Format : AVC
Format/Info : Advanced Video Codec
Format profile : High@L4.1
Format settings, CABAC : Yes
Format settings, ReFrames : 4 frames
Codec ID : avc1
Codec ID/Info : Advanced Video Coding
Duration : 46mn 59s
Bit rate : 3 623 Kbps
Maximum bit rate : 12.0 Mbps
Width : 1 280 pixels
Height : 720 pixels
Display aspect ratio : 16:9
Frame rate mode : Constant
Frame rate : 29.970 fps
Color space : YUV
Chroma subsampling : 4:2:0
Bit depth : 8 bits
Scan type : Progressive
Bits/(Pixel*Frame) : 0.131
Stream size : 1.19 GiB (96%)
Title : Continent.7.Antarctica.Series.1.1of6.Storming.Antarctica.720p.HDTV.x264.AAC
Writing library : x264 core 142 r2479 dd79a61
Encoding settings : cabac=1 / ref=1 / deblock=1:0:0 / analyse=0x3:0x3 / me=dia / subme=1 / psy=1 / psy_rd=1.00:0.00 / mixed_ref=0 / me_range=16 / chroma_me=1 / trellis=0 / 8x8dct=1 / cqm=0 / deadzone=21,11 / fast_pskip=1 / chroma_qp_offset=0 / threads=6 / lookahead_threads=1 / sliced_threads=0 / nr=0 / decimate=1 / interlaced=0 / bluray_compat=0 / constrained_intra=0 / bframes=3 / b_pyramid=2 / b_adapt=1 / b_bias=0 / direct=1 / weightb=1 / open_gop=0 / weightp=1 / keyint=300 / keyint_min=30 / scenecut=40 / intra_refresh=0 / rc_lookahead=0 / rc=crf / mbtree=0 / crf=21.0 / qcomp=0.60 / qpmin=0 / qpmax=69 / qpstep=4 / vbv_maxrate=62500 / vbv_bufsize=78125 / crf_max=0.0 / nal_hrd=none / filler=0 / ip_ratio=1.40 / pb_ratio=1.30 / aq=1:1.00
Encoded date : UTC 2017-03-05 15:35:27
Tagged date : UTC 2017-03-07 00:14:28
Color primaries : BT.709-5, BT.1361, IEC 61966-2-4, SMPTE RP177
Transfer characteristics : BT.709-5, BT.1361
Matrix coefficients : BT.709-5, BT.1361, IEC 61966-2-4 709, SMPTE RP177

Audio
ID : 2
Format : AAC
Format/Info : Advanced Audio Codec
Format profile : LC
Codec ID : 40
Duration : 46mn 58s
Bit rate mode : Variable
Bit rate : 160 Kbps
Maximum bit rate : 187 Kbps
Channel(s) : 2 channels
Channel positions : Front: L R
Sampling rate : 48.0 KHz
Compression mode : Lossy
Stream size : 53.9 MiB (4%)
Title : Continent.7.Antarctica.Series.1.1of6.Storming.Antarctica.720p.HDTV.x264.AAC
Encoded date : UTC 2017-03-07 00:14:23
Tagged date : UTC 2017-03-07 00:14:28

Text
ID : 3
Format : Timed text
Codec ID : tx3g
Duration : 46mn 54s
Bit rate mode : Variable
Bit rate : 130 bps
Stream size : 44.7 KiB (0%)
Title : Continent.7.Antarctica.Series.1.1of6.Storming.Antarctica.720p.HDTV.x264.AAC
Encoded date : UTC 2017-03-07 00:14:28
Tagged date : UTC 2017-03-07 00:14:28
Screenshots

National Geographic - Continent 7: Antarctica Series 1 (2017)

National Geographic - Continent 7: Antarctica Series 1 (2017)

National Geographic - Continent 7: Antarctica Series 1 (2017)

National Geographic - Continent 7: Antarctica Series 1 (2017)

Welcome to my blog - daily update!