Tags
Language
Tags

Cowspiracy: The Sustainability Secret (2014)

Posted By: Tutorial
Cowspiracy: The Sustainability Secret (2014)

Cowspiracy: The Sustainability Secret (2014)
WEBRip | 1920 x 812 | .MKV/AVC @ 6731 Kbps | 1h 30mn | 4.33 GB
Audio: English E-AC-3 128 Kbps, 2 channels | Subs: English
Genre: Documentary

Follow the shocking, yet humorous, journey of an aspiring environmentalist, as he daringly seeks to find the real solution to the most pressing environmental issues and true path to sustainability.
Directors: Kip Andersen, Keegan Kuhn
Writers: Kip Andersen, Keegan Kuhn
Stars: Lisa Agabian, Manucher Alemi, Lindsey Allen

More info: IMDB

General
Unique ID : 181877736409930048523538449218113358258 (0x88D460BC8ACC0AC693C87C724887C9B2)
Complete name : cowspiracy.the.sustainability.secret.2014.mkv
Format : Matroska
Format version : Version 4 / Version 2
File size : 4.33 GiB
Duration : 1 h 30 min
Overall bit rate : 6 860 kb/s
Encoded date : UTC 2017-06-10 17:47:14
Writing application : mkvmerge v9.6.0 ('Slave To Your Mind') 64bit
Writing library : libebml v1.3.4 + libmatroska v1.4.5

Video
ID : 1
Format : AVC
Format/Info : Advanced Video Codec
Format profile : High@L4.1
Format settings, CABAC : Yes
Format settings, ReFrames : 5 frames
Codec ID : V_MPEG4/ISO/AVC
Duration : 1 h 30 min
Bit rate : 6 731 kb/s
Width : 1 920 pixels
Height : 812 pixels
Display aspect ratio : 2.35:1
Frame rate mode : Constant
Frame rate : 23.976 (24000/1001) FPS
Color space : YUV
Chroma subsampling : 4:2:0
Bit depth : 8 bits
Scan type : Progressive
Bits/(Pixel*Frame) : 0.180
Stream size : 4.25 GiB (98%)
Writing library : x264 core 150 r2833 df79067
Encoding settings : cabac=1 / ref=5 / deblock=1:-3:-3 / analyse=0x3:0x133 / me=umh / subme=9 / psy=1 / psy_rd=1.00:0.00 / mixed_ref=1 / me_range=16 / chroma_me=1 / trellis=2 / 8x8dct=1 / cqm=0 / deadzone=21,11 / fast_pskip=1 / chroma_qp_offset=-2 / threads=12 / lookahead_threads=1 / sliced_threads=0 / nr=0 / decimate=1 / interlaced=0 / bluray_compat=0 / constrained_intra=0 / bframes=3 / b_pyramid=2 / b_adapt=2 / b_bias=0 / direct=3 / weightb=1 / open_gop=0 / weightp=2 / keyint=250 / keyint_min=23 / scenecut=40 / intra_refresh=0 / rc_lookahead=60 / rc=crf / mbtree=1 / crf=17.0 / qcomp=0.60 / qpmin=0 / qpmax=69 / qpstep=4 / ip_ratio=1.40 / aq=3:0.80
Default : Yes
Forced : No

Audio
ID : 2
Format : E-AC-3
Format/Info : Enhanced Audio Coding 3
Format settings, Endianness : Big
Codec ID : A_EAC3
Duration : 1 h 30 min
Bit rate mode : Constant
Bit rate : 128 kb/s
Channel(s) : 2 channels
Channel positions : Front: L R
Sampling rate : 48.0 kHz
Frame rate : 187.500 FPS (256 spf)
Compression mode : Lossy
Stream size : 82.8 MiB (2%)
Language : English
Service kind : Complete Main
Default : Yes
Forced : No

Text
ID : 3
Format : UTF-8
Codec ID : S_TEXT/UTF8
Codec ID/Info : UTF-8 Plain Text
Duration : 1 h 27 min
Bit rate : 126 b/s
Count of elements : 1505
Stream size : 81.0 KiB (0%)
Title : English SDH
Language : English
Default : No
Forced : No
Screenshots

Cowspiracy: The Sustainability Secret (2014)

Cowspiracy: The Sustainability Secret (2014)

Cowspiracy: The Sustainability Secret (2014)

Cowspiracy: The Sustainability Secret (2014)

Welcome to my blog - daily update!

Cowspiracy: The Sustainability Secret (2014)