Crazy Ex-Girlfriend S03E06

Posted By: Tavaz
720p (HD) / WEBRip IMDb
Crazy Ex-Girlfriend S03E06

Crazy Ex-Girlfriend S03E06
H264 | MKV | 1920x1080 | English | H264 @ 8730 kbps | E-AC-3 @ 640 kbps | 42 min 29 s | 2.78 GiB
Subtitles: English
Genre: Comedy, Musical

A young woman abandons a choice job at a law firm and her life in New York in an attempt to find happiness in the unlikely locale of West Covina, California.



Crazy.Ex-Girlfriend.S03E06.Josh.is.Irrelevant.1080p.AMZN.WEB-DL.DD+5.1.H.264-ViSUM.mkv (2.8 GB)



General
Unique ID : 197476560244742104781013980162805085918 (0x94909A21318EA59FBD4CF67C30FA36DE)
Complete name : ./Crazy.Ex-Girlfriend.S03E06.Josh.is.Irrelevant.1080p.AMZN.WEB-DL.DD+5.1.H.264-ViSUM.mkv
Format : Matroska
Format version : Version 4 / Version 2
File size : 2.78 GiB
Duration : 42 min 29 s
Overall bit rate mode : Variable
Overall bit rate : 9 373 kb/s
Encoded date : UTC 2017-11-18 17:01:24
Writing application : mkvmerge v13.0.0 ('The Juggler') 64bit
Writing library : libebml v1.3.4 + libmatroska v1.4.5

Video
ID : 1
Format : AVC
Format/Info : Advanced Video Codec
Format profile : High@L4
Format settings : CABAC / 4 Ref Frames
Format settings, CABAC : Yes
Format settings, RefFrames : 4 frames
Codec ID : V_MPEG4/ISO/AVC
Duration : 42 min 29 s
Bit rate mode : Variable
Bit rate : 8 731 kb/s
Maximum bit rate : 15.0 Mb/s
Width : 1 920 pixels
Height : 1 080 pixels
Display aspect ratio : 16:9
Frame rate mode : Constant
Frame rate : 23.976 (24000/1001) FPS
Color space : YUV
Chroma subsampling : 4:2:0
Bit depth : 8 bits
Scan type : Progressive
Bits/(Pixel*Frame) : 0.176
Stream size : 2.59 GiB (93%)
Default : Yes
Forced : No
Color range : Limited
Color primaries : BT.709
Transfer characteristics : BT.709
Matrix coefficients : BT.709

Audio
ID : 2
Format : E-AC-3
Format/Info : Enhanced Audio Coding 3
Format settings, Endianness : Big
Codec ID : A_EAC3
Duration : 42 min 28 s
Bit rate mode : Constant
Bit rate : 640 kb/s
Channel(s) : 6 channels
Channel positions : Front: L C R, Side: L R, LFE
Sampling rate : 48.0 kHz
Frame rate : 187.500 FPS (256 SPF)
Compression mode : Lossy
Stream size : 194 MiB (7%)
Language : English
Service kind : Complete Main
Default : Yes
Forced : No

Text
ID : 3
Format : UTF-8
Codec ID : S_TEXT/UTF8
Codec ID/Info : UTF-8 Plain Text
Duration : 41 min 54 s
Bit rate : 102 b/s
Count of elements : 1043
Stream size : 31.3 KiB (0%)
Language : English
Default : No
Forced : No





Crazy Ex-Girlfriend S03E06


Crazy Ex-Girlfriend S03E06


Crazy Ex-Girlfriend S03E06


Crazy Ex-Girlfriend S03E06


Crazy Ex-Girlfriend S03E06

All episodes