Cries from Syria (2017)

Posted By: JohnSmith
Cries from Syria (2017)

Cries from Syria (2017)
WEBRip 720p | MP4 / AVC@1100 kb/s | 1280x718 | 1h 51mn | 982 MB
Arabic: AC3, 384 kb/s (2 ch) | Subtitles: English (hardcoded)
WEBRip 1080p | MP4 / AVC@2200 kb/s | 1920x1076 | 1h 51mn | 2.01 GB
Arabic: AC3, 384 kb/s (2 ch) | Subtitles: English (hardcoded)
Genre: Documentary | Drama

CRIES FROM SYRIA is a searing, comprehensive account of a brutal five-year conflict from the inside out, drawing on hundreds of hours of war footage from Syrian activists and citizen journalists, as well as testimony from child protesters, leaders of the revolution, human rights defenders, ordinary citizens, and high-ranking army generals who defected from the government. Their collective stories are a cry for attention and help from a world that little understands their reality or agrees on what to do about it. A documentary by Evgeny Afineevsky, director of the Oscar-nominated film WINTER ON FIRE, CRIES FROM SYRIA premiered at the 2017 Sundance Film Festival.

IMDB - 1 win & 2 nominations.



General
Complete name : D:\Downloads\Cries.From.Syria.2017.720p.WEBRip.x264.AAC-eSc\Cries.From.Syria.2017.720p.WEBRip.x264.AAC-eSc.mp4
Format : MPEG-4
Format profile : Base Media / Version 2
Codec ID : mp42 (mp42/isom)
File size : 982 MiB
Duration : 1 h 51 min
Overall bit rate mode : Variable
Overall bit rate : 1 233 kb/s
Encoded date : UTC 2017-03-14 20:49:24
Tagged date : UTC 2017-03-14 20:49:28

Video
ID : 1
Format : AVC
Format/Info : Advanced Video Codec
Format profile : High@L4.1
Format settings, CABAC : Yes
Format settings, ReFrames : 8 frames
Codec ID : avc1
Codec ID/Info : Advanced Video Coding
Duration : 1 h 51 min
Bit rate : 1 100 kb/s
Width : 1 280 pixels
Height : 718 pixels
Display aspect ratio : 16:9
Original display aspect rat : 16:9
Frame rate mode : Variable
Frame rate : 24.271 FPS
Minimum frame rate : 13.321 FPS
Maximum frame rate : 29.970 FPS
Color space : YUV
Chroma subsampling : 4:2:0
Bit depth : 8 bits
Scan type : Progressive
Bits/(Pixel*Frame) : 0.049
Stream size : 876 MiB (89%)
Writing library : x264 core 142 r2479 dd79a61
Encoding settings : cabac=1 / ref=8 / deblock=1:-1:-1 / analyse=0x3:0x133 / me=umh / subme=9 / psy=1 / psy_rd=1.00:0.15 / mixed_ref=1 / me_range=16 / chroma_me=1 / trellis=2 / 8x8dct=1 / cqm=0 / deadzone=21,11 / fast_pskip=1 / chroma_qp_offset=-3 / threads=12 / lookahead_threads=1 / sliced_threads=0 / nr=0 / decimate=1 / interlaced=0 / bluray_compat=0 / constrained_intra=0 / bframes=3 / b_pyramid=2 / b_adapt=2 / b_bias=0 / direct=3 / weightb=1 / open_gop=0 / weightp=2 / keyint=240 / keyint_min=24 / scenecut=40 / intra_refresh=0 / rc_lookahead=60 / rc=2pass / mbtree=1 / bitrate=1100 / ratetol=1.0 / qcomp=0.60 / qpmin=0 / qpmax=69 / qpstep=4 / cplxblur=20.0 / qblur=0.5 / vbv_maxrate=62500 / vbv_bufsize=78125 / nal_hrd=none / filler=0 / ip_ratio=1.40 / aq=1:1.00
Encoded date : UTC 2017-03-14 20:49:24
Tagged date : UTC 2017-03-14 20:49:28
Color range : Limited
Color primaries : BT.709
Transfer characteristics : BT.709
Matrix coefficients : BT.709

Audio
ID : 2
Format : AAC
Format/Info : Advanced Audio Codec
Format profile : LC
Codec ID : 40
Duration : 1 h 51 min
Bit rate mode : Variable
Bit rate : 128 kb/s
Channel(s) : 2 channels
Channel positions : Front: L R
Sampling rate : 48.0 kHz
Frame rate : 46.875 FPS (1024 spf)
Compression mode : Lossy
Stream size : 102 MiB (10%)
Title : Stereo
Encoded date : UTC 2017-03-14 20:49:24
Tagged date : UTC 2017-03-14 20:49:28





General
Complete name : D:\Downloads\Cries.From.Syria.2017.1080p.WEBRip.x264.AC3-eSc\Cries.From.Syria.2017.1080p.WEBRip.x264.AC3-eSc.mp4
Format : MPEG-4
Format profile : Base Media / Version 2
Codec ID : mp42 (mp42/isom)
File size : 2.01 GiB
Duration : 1 h 51 min
Overall bit rate : 2 588 kb/s
Encoded date : UTC 2017-03-14 20:51:43
Tagged date : UTC 2017-03-14 20:51:48

Video
ID : 1
Format : AVC
Format/Info : Advanced Video Codec
Format profile : High@L4.1
Format settings, CABAC : Yes
Format settings, ReFrames : 4 frames
Codec ID : avc1
Codec ID/Info : Advanced Video Coding
Duration : 1 h 51 min
Bit rate : 2 200 kb/s
Width : 1 920 pixels
Height : 1 076 pixels
Display aspect ratio : 16:9
Frame rate mode : Variable
Frame rate : 24.271 FPS
Minimum frame rate : 13.321 FPS
Maximum frame rate : 29.970 FPS
Color space : YUV
Chroma subsampling : 4:2:0
Bit depth : 8 bits
Scan type : Progressive
Bits/(Pixel*Frame) : 0.044
Stream size : 1.71 GiB (85%)
Writing library : x264 core 142 r2479 dd79a61
Encoding settings : cabac=1 / ref=4 / deblock=1:-1:-1 / analyse=0x3:0x133 / me=umh / subme=9 / psy=1 / psy_rd=1.00:0.15 / mixed_ref=1 / me_range=16 / chroma_me=1 / trellis=2 / 8x8dct=1 / cqm=0 / deadzone=21,11 / fast_pskip=1 / chroma_qp_offset=-3 / threads=12 / lookahead_threads=1 / sliced_threads=0 / nr=0 / decimate=1 / interlaced=0 / bluray_compat=0 / constrained_intra=0 / bframes=3 / b_pyramid=2 / b_adapt=2 / b_bias=0 / direct=3 / weightb=1 / open_gop=0 / weightp=2 / keyint=300 / keyint_min=30 / scenecut=40 / intra_refresh=0 / rc_lookahead=60 / rc=2pass / mbtree=1 / bitrate=2200 / ratetol=1.0 / qcomp=0.60 / qpmin=0 / qpmax=69 / qpstep=4 / cplxblur=20.0 / qblur=0.5 / vbv_maxrate=62500 / vbv_bufsize=78125 / nal_hrd=none / filler=0 / ip_ratio=1.40 / aq=1:1.00
Encoded date : UTC 2017-03-14 20:51:43
Tagged date : UTC 2017-03-14 20:51:48
Color range : Limited
Color primaries : BT.709
Transfer characteristics : BT.709
Matrix coefficients : BT.709

Audio
ID : 2
Format : AC-3
Format/Info : Audio Coding 3
Format settings, Endianness : Big
Codec ID : ac-3
Duration : 1 h 51 min
Duration_FirstFrame : 200 ms
Bit rate mode : Constant
Bit rate : 384 kb/s
Channel(s) : 2 channels
Channel positions : Front: L R
Sampling rate : 44.1 kHz
Frame rate : 28.711 FPS (1536 spf)
Bit depth : 16 bits
Compression mode : Lossy
Stream size : 306 MiB (15%)
Title : Stereo
Service kind : Complete Main
Encoded date : UTC 2017-03-14 20:51:43
Tagged date : UTC 2017-03-14 20:51:47




Screenshots WEBRip 720p

Cries from Syria (2017)

Cries from Syria (2017)

Cries from Syria (2017)


Screenshots WEBRip 1080p

Cries from Syria (2017)

Cries from Syria (2017)

Cries from Syria (2017)